Торренты   
 
 

 

Затаившиеся 3D / Hidden 3D [2011г, 1080p, BDrip, Anamorph OverUnder]

Рейтинг 3D:
11 голосов
7.5
Рейтинг фильма:
9 голосов
5.8
 
Вы должны быть авторизированы,
чтобы ставить оценки


Затаившиеся 3D / Hidden 3D
Год выпуска: 2011
Страна: Канада, Италия
Жанр: Ужасы, Триллер
Продолжительность: 01:21:20
Перевод: Профессиональный (полное дублирование)
Режиссер: Антуан Томас / Antoine Thomas
В ролях: Шон Клемент, Симонетта Солдер, Джордан Хэйес, Джейсон Бликер, Бьянка Мерджел, Девон Бостик, Эллиотт Ларсон-Гилмор, Аллан Колмэн, Кристина Розато.
Роли озвучивали: Денис Беспалый, Диомид Виноградов, Владимир Антоник.
Описание: Компания молодых людей отправляется на выходные в опустевший монастырь, где некогда располагался загадочный медицинский центр для людей с тяжелыми зависимостями. Вскоре выясняется, что над пациентами тайно проводились бесчеловечные эксперименты, в результате которых изгнанные из людей пороки никуда не исчезли, а затаились в стенах древнего здания и ждут своего часа. Они переполнены жаждой мести и уже никого не выпустят наружу… Формат 3d: Anamorph OverUnder
Качество: BDrip (за BD большое спасибо пользователю Secret!)
Контейнер: MKV
Видео: AVC / 1920х1080p / 23,976 fps / 14.2 Mbps
Аудио#1: Русский / AC3 / 48 KHz / 5.1 ch / 640 Kbps
Аудио#2: Английский / AC3 / 48 KHz / 5.1 ch / 640 Kbps

MediaInfo

General
Unique ID : 200664483188133575455729587050735471399 (0x96F692DDA7ED0DFD8B45F7E1F0EC0B27)
Complete name : F:\Downloads\Hidden3D.halfOU.AC3.ash61.mkv
Format : Matroska
File size : 8.95 GiB
Duration : 1h 21mn
Overall bit rate : 15.8 Mbps
Encoded date : UTC 2011-07-31 22:18:37
Writing application : mkvmerge v3.4.0 ('Rapunzel') сборка от May 15 2010 09:38:20
Writing library : libebml v0.8.0 + libmatroska v0.9.0
Video
ID : 1
Format : AVC
Format/Info : Advanced Video Codec
Format profile : High@L4.1
Format settings, CABAC : Yes
Format settings, ReFrames : 4 frames
Codec ID : V_MPEG4/ISO/AVC
Duration : 1h 21mn
Bit rate : 14.2 Mbps
Width : 1 920 pixels
Height : 1 080 pixels
Display aspect ratio : 16:9
Frame rate : 23.976 fps
Color space : YUV
Chroma subsampling : 4:2:0
Bit depth : 8 bits
Scan type : Progressive
Bits/(Pixel*Frame) : 0.285
Stream size : 8.05 GiB (90%)
Writing library : x264 core 113 r1884 7313bb5
Encoding settings : cabac=1 / ref=4 / deblock=1:-3:-3 / analyse=0x3:0x113 / me=umh / subme=9 / psy=1 / psy_rd=1.00:0.15 / mixed_ref=1 / me_range=16 / chroma_me=1 / trellis=2 / 8x8dct=1 / cqm=0 / deadzone=21,11 / fast_pskip=1 / chroma_qp_offset=-3 / threads=3 / sliced_threads=0 / nr=0 / decimate=1 / interlaced=0 / constrained_intra=0 / bframes=6 / b_pyramid=2 / b_adapt=2 / b_bias=0 / direct=3 / weightb=1 / open_gop=0 / weightp=2 / keyint=250 / keyint_min=23 / scenecut=40 / intra_refresh=0 / rc_lookahead=60 / rc=crf / mbtree=1 / crf=18.0 / qcomp=0.70 / qpmin=1 / qpmax=51 / qpstep=4 / ip_ratio=1.40 / aq=1:1.00
Audio #1
ID : 2
Format : AC-3
Format/Info : Audio Coding 3
Mode extension : CM (complete main)
Codec ID : A_AC3
Duration : 1h 21mn
Bit rate mode : Constant
Bit rate : 640 Kbps
Channel(s) : 6 channels
Channel positions : Front: L C R, Side: L R, LFE
Sampling rate : 48.0 KHz
Bit depth : 16 bits
Compression mode : Lossy
Stream size : 372 MiB (4%)
Language : Russian
Audio #2
ID : 3
Format : AC-3
Format/Info : Audio Coding 3
Mode extension : CM (complete main)
Codec ID : A_AC3
Duration : 1h 21mn
Bit rate mode : Constant
Bit rate : 640 Kbps
Channel(s) : 6 channels
Channel positions : Front: L C R, Side: L R, LFE
Sampling rate : 48.0 KHz
Bit depth : 16 bits
Compression mode : Lossy
Stream size : 372 MiB (4%)
Language : English
Menu
00:00:00.000 : :01
00:06:15.709 : :02
00:11:35.737 : :03
00:19:03.517 : :04
00:24:55.828 : :05
00:31:36.353 : :06
00:39:34.080 : :07
00:46:16.816 : :08
00:54:06.702 : :09
01:01:00.866 : :10
01:08:17.260 : :11
01:17:12.127 : :12

Скриншоты

Благодарности релизеру (12)

Торрент:

Статус:

Размер:

Зарегистрирован   [ 2011-08-01 13:41 ]

проверено

8.95 GB