Торренты   
 
 

 

Тайна красной планеты / Mars Needs Moms [2011г, 1080p, BDrip-FAB, Anamorph SideBySide]

Тайна красной планеты / Mars Needs Moms
Год выпуска: 2011
Страна: США
Жанр: Мультфильм, Фантастика, Комедия
Продолжительность: 01:27:55
Перевод: Профессиональный (полное дублирование)
Режиссер: Саймон Уэллс / Simon Wells
В ролях:
Майло - (Seth Green)
Гриббл - Диомид Виноградов (Dan Fogler)
Мама - Анастасия Лапина (Joan Cusack)
Ки - Жанна Агузарова (Elisabeth Harnois)
...........
Описание: Есть мерзкую брокколи, выносить мусор, рано ложиться спать — кому вообще нужны мамы, заставляющие это делать? Так думал Майло, пока не обнаружил, что его маму похитили марсиане. Тут-то и оказалось, что ему предстоит отправиться на другую планету, чтобы найти маму и вернуть ее домой.
Доп. информация: Временно выкладываю буржуйский ФАБ-рип. Как мне будет доступен БД - выложу нормальный рип (выложил, ссылка внизу).
Формат 3d: Anamorph SideBySide (параллельная)
Качество: BDrip
Контейнер: MKV
Видео: AVC / 1920х1080p / 23,976 fps / 11.6 Mbps
Аудио#1: Русский / AC3 / 48 KHz / 5.1 ch / 384 Kbps
Аудио#2: Украинский / AC3 / 48 KHz / 5.1 ch / 384 Kbps
Аудио#3: Английский / DTS / 48 KHz / 5.1 ch / 1 510 Kbps

MediaInfo

General
Unique ID : 252059090414252590931003330399573039750 (0xBDA0D0A3BBE471C399F0122E14EEDA86)
Complete name : F:\Downloads\Mars.Needs.Moms.3D.2011.H-SBS.H264.1080p.3D4U.mkv
Format : Matroska
File size : 8.69 GiB
Duration : 1h 28mn
Overall bit rate : 14.1 Mbps
Movie name : Mars Needs Moms - 3D4U
Encoded date : UTC 2011-08-02 12:31:58
Writing application : mkvmerge v3.4.0 ('Rapunzel') сборка от May 15 2010 09:38:20
Writing library : libebml v0.8.0 + libmatroska v0.9.0
Video
ID : 1
Format : AVC
Format/Info : Advanced Video Codec
Format profile : High@L4.1
Format settings, CABAC : Yes
Format settings, ReFrames : 2 frames
Codec ID : V_MPEG4/ISO/AVC
Duration : 1h 28mn
Bit rate : 11.6 Mbps
Width : 1 920 pixels
Height : 1 080 pixels
Display aspect ratio : 16:9
Frame rate : 23.976 fps
Color space : YUV
Chroma subsampling : 4:2:0
Bit depth : 8 bits
Scan type : Progressive
Bits/(Pixel*Frame) : 0.233
Stream size : 7.12 GiB (82%)
Writing library : x264 core
Color primaries : BT.709-5, BT.1361, IEC 61966-2-4, SMPTE RP177
Transfer characteristics : BT.709-5, BT.1361
Matrix coefficients : BT.709-5, BT.1361, IEC 61966-2-4 709, SMPTE RP177
Audio #1
ID : 2
Format : AC-3
Format/Info : Audio Coding 3
Mode extension : CM (complete main)
Codec ID : A_AC3
Duration : 1h 28mn
Bit rate mode : Constant
Bit rate : 384 Kbps
Channel(s) : 6 channels
Channel positions : Front: L C R, Side: L R, LFE
Sampling rate : 48.0 KHz
Bit depth : 16 bits
Compression mode : Lossy
Stream size : 242 MiB (3%)
Language : Russian
Audio #2
ID : 3
Format : AC-3
Format/Info : Audio Coding 3
Mode extension : CM (complete main)
Codec ID : A_AC3
Duration : 1h 28mn
Bit rate mode : Constant
Bit rate : 384 Kbps
Channel(s) : 6 channels
Channel positions : Front: L C R, Side: L R, LFE
Sampling rate : 48.0 KHz
Bit depth : 16 bits
Compression mode : Lossy
Stream size : 242 MiB (3%)
Language : Ukrainian
Audio #3
ID : 4
Format : DTS
Format/Info : Digital Theater Systems
Codec ID : A_DTS
Duration : 1h 28mn
Bit rate mode : Constant
Bit rate : 1 510 Kbps
Channel(s) : 6 channels
Channel positions : Front: L C R, Side: L R, LFE
Sampling rate : 48.0 KHz
Bit depth : 24 bits
Compression mode : Lossy
Delay relative to video : 11ms
Stream size : 951 MiB (11%)
Language : English

Скриншоты

Вертикальная анаморфная пара - тут
Комментарии:





Мультфильм прикольный смотрел ещё в 2D
 

Мультик хороший, интересно было смотреть и смысл есть =)
 

Один раз посмотреть можно, очень уж фантастический. Снято качественно, 3D на хорошем уровне.
P.S. - не люблю звёздные войны!
 

Мультик хороший мне понравился
 

На один раз.