Торренты   
 
 


Пастырь / Priest [2011г, 1080p, BDrip (FAB), Anamorph SideBySide]

Пастырь / Priest
Год выпуска: 2011
Страна: США
Жанр: Фантастика, Боевик, Триллер
Продолжительность: 01:27:26
Перевод: Профессиональный (полное дублирование)
Режиссер: Скотт Чарльз Стюарт / Scott Charles Stewart
В ролях (роли дублировали):
Пастырь - Paul Bettany (Всеволод Кузнецов)
Чёрная Шляпа - Karl Urban
Хикс - Cam Gigandet
Жрица - Maggie Q
Люси Пэйс - Lily Collins (Елизавета Захарьева)
Продавец - Brad Dourif
Оуэн Пэйс - Stephen Moyer (Владимир Маслаков)
Монсеньор Орелас - Christopher Plummer (Валерий Никитенко)
Описание: Сюжет картины развивается во вселенной постапокалипсиса, где идет вечное противостояние расы людей и жутких монстров-вампиров. Кроме этого верховной властью является церковь, чьи воины - пастыри. Спустя годы, после победы людей вампиры набираются сил и решают отомстить.
Священник, нарушая все церковные запреты, пытается выследить банду вампиров, похитивших его племянницу...
Доп. информация: Временно выкладываю буржуйский ФАБ-рип. Как мне будет доступен БД - выложу нормальный рип.
Формат 3d: Anamorph SideBySide
Порядок ракурсов: Параллельная пара
Качество: BDrip
Контейнер: MKV
Видео: AVC / 1920х1080p / 23,976 fps / 11.6 Mbps
Аудио#1: Русский / AC3 / 48 KHz / 5.1 ch / 448 Kbps
Аудио#2: Украинский / AC3 / 48 KHz / 5.1 ch / 448 Kbps
Аудио#3: Английский / DTS / 48 KHz / 5.1 ch / 1 510 Kbps

MediaInfo

General
Unique ID : 199281513830218815639923634052723029397 (0x95EC39364D7F0E669E3A494D1AFEB595)
Complete name : F:\Downloads\Priest.3D.2011.H-SBS.H264.1080p.3D4U.mkv
Format : Matroska
File size : 8.70 GiB
Duration : 1h 27mn
Overall bit rate : 14.2 Mbps
Movie name : Priest 3D - 3D4U
Encoded date : UTC 2011-08-02 13:44:32
Writing application : mkvmerge v3.4.0 ('Rapunzel') сборка от May 15 2010 09:38:20
Writing library : libebml v0.8.0 + libmatroska v0.9.0
Video
ID : 1
Format : AVC
Format/Info : Advanced Video Codec
Format profile : High@L4.1
Format settings, CABAC : Yes
Format settings, ReFrames : 2 frames
Codec ID : V_MPEG4/ISO/AVC
Duration : 1h 27mn
Bit rate : 11.6 Mbps
Width : 1 920 pixels
Height : 1 080 pixels
Display aspect ratio : 16:9
Frame rate : 23.976 fps
Color space : YUV
Chroma subsampling : 4:2:0
Bit depth : 8 bits
Scan type : Progressive
Bits/(Pixel*Frame) : 0.232
Stream size : 7.06 GiB (81%)
Writing library : x264 core
Color primaries : BT.709-5, BT.1361, IEC 61966-2-4, SMPTE RP177
Transfer characteristics : BT.709-5, BT.1361
Matrix coefficients : BT.709-5, BT.1361, IEC 61966-2-4 709, SMPTE RP177
Audio #1
ID : 2
Format : AC-3
Format/Info : Audio Coding 3
Mode extension : CM (complete main)
Codec ID : A_AC3
Duration : 1h 27mn
Bit rate mode : Constant
Bit rate : 448 Kbps
Channel(s) : 6 channels
Channel positions : Front: L C R, Side: L R, LFE
Sampling rate : 48.0 KHz
Bit depth : 16 bits
Compression mode : Lossy
Stream size : 280 MiB (3%)
Language : Russian
Audio #2
ID : 3
Format : AC-3
Format/Info : Audio Coding 3
Mode extension : CM (complete main)
Codec ID : A_AC3
Duration : 1h 27mn
Bit rate mode : Constant
Bit rate : 448 Kbps
Channel(s) : 6 channels
Channel positions : Front: L C R, Side: L R, LFE
Sampling rate : 48.0 KHz
Bit depth : 16 bits
Compression mode : Lossy
Stream size : 280 MiB (3%)
Language : Ukrainian
Audio #3
ID : 4
Format : DTS
Format/Info : Digital Theater Systems
Codec ID : A_DTS
Duration : 1h 27mn
Bit rate mode : Constant
Bit rate : 1 510 Kbps
Channel(s) : 6 channels
Channel positions : Front: L C R, Side: L R, LFE
Sampling rate : 48.0 KHz
Bit depth : 24 bits
Compression mode : Lossy
Delay relative to video : 11ms
Stream size : 944 MiB (11%)
Language : English

Скриншоты

Комментарии:

Пред.  1, 2, 3  След.






спасибо ты супер!!!!
 

че та я не понял, можно уже это качать или будет еще лучше релиз?
 

кстати судя по скинам 3д не очень, отпишитесь кто смотрел уже!
 

BLACKntgl
читать не умеешь?
 

3d vision player не открывает файл ( , в чем может быть проблем, чем файл открыть?
 

Спасибо,супер!!!!
 

Losidzze Stereoscopic Player плюс кодеки CoreAVC Pro 2.0.0. Или плеер Arcsoft TotalMedia Theatre 5 тоже не плох.
 

Зделайте Люди X в 3Д
 

Serg_SC
уже снимаем ))
 

Аnатоliy052
причем тут "читать не умеешь", просто не разбираюсь я в тонкостях вот и спросил, буржуйский рип не буржуйский для меня это не понятно, если сказано что выложит нормальный рип - следовательно этот ненормальный что ли?
 

Аnатоliy052
причем тут "читать не умеешь", просто не разбираюсь я в тонкостях вот и спросил, буржуйский рип не буржуйский для меня это не понятно, если сказано что выложит нормальный рип - следовательно этот ненормальный что ли?
Это ПАНОС! (походу) :)
 

kristi4880
Качай оригинальный блу рэй Порадуешь нас своим Р.И.П.ом! Надеюсь он не будет фабовским )))
 

Зделайте Люди X в 3Д
сделай сам себе при помощи ДВДФаба - подробности в личку , ибо фейки достали ((((
 

СПАСИБО!!!
 

кстати судя по скинам 3д не очень, отпишитесь кто смотрел уже!
Уже не первый раз читаю. Не понимаю , как можно по скинам определять - это "Очень" 3D фильм или " не очень "!? Может кто-то подскажет в чём дебилизм ?Может я что-то не понимаю ?
 

это "Очень" 3D фильм или " не очень "!? Может кто-то подскажет в чём дебилизм ?Может я что-то не понимаю ?
Они имеют ввиду глубину стереоэффекта, в некоторых фильмах ее действительно не хватает.
 

Господа, не ругайтесь! Бывают фильмы с фейковым 3д, но здесь (как и на большинстве уважающих себя трекеров) они сразу удаляются! В этом релизе - нормальное 3д. 3д-фейки я даже не пытаюсь выкладывать! Если бы вы знали, сколько скачанных 3д-фейков я просто поудалял, даже не пытаясь выкладывать!
Удачи всем! :)
 

 

OLEG76
:) вот это я понимаю! Примерение будет! Мне возвращвться? А то Саша один скоро не сможет справляться?
 

TopGun
как там в фильме было с Чарли Шином Обнаженное оружие вроде
Вождь, я принес тебе батарейки. - Давно пора *ули ты так долго :)))
PS: Вечером выложу ISO Пастыря
 

Страница 2 из 3

Пред.  1, 2, 3  След.