Торренты   
 
 

 

Тайна красной планеты / Mars Needs Moms [2011г, 1080p, BDrip, Anamorph OverUnder]

Рейтинг 3D:
21 голосов
7.9
Рейтинг фильма:
22 голосов
8.1
 
Вы должны быть авторизированы,
чтобы ставить оценки


Тайна красной планеты / Mars Needs Moms
Год выпуска: 2011
Страна: США
Жанр: Мультфильм, Фантастика, Комедия
Продолжительность: 01:28:01
Перевод: Профессиональный (полное дублирование)
Субтитры: Полные русские, украинские и английские
Режиссер: Саймон Уэллс / Simon Wells
Роли исполняли (Дублировали):
Майло - Seth Green
Гриббл - Dan Fogler (Диомид Виноградов)
Мама - Joan Cusack (Анастасия Лапина)
Ки - Elisabeth Harnois (Жанна Агузарова)
Supervisor - Mindy Sterling
Wingnut - Kevin Cahoon
Папа - Tom Everett Scott
Описание: Есть мерзкую брокколи, выносить мусор, рано ложиться спать — кому вообще нужны мамы, заставляющие это делать? Так думал Майло, пока не обнаружил, что его маму похитили марсиане. Тут-то и оказалось, что ему предстоит отправиться на другую планету, чтобы найти маму и вернуть ее домой.

Это интересно знать...

Книга Беркли Брезеда «Марсу нужны мамы», по которой снят фильм «Тайна Красной планеты», появилась на свет после ссоры между его женой и сыном. Главного героя и в книге, и в фильме зовут так же, как сына Брезеда – Майло.
Вот что говорит сам Брезед: «Фильма бы не было, если бы 10 августа 2006 года на столе Брезедов не осталась недоеденной тарелка цветной капусты. Настоящий Майло, 5 лет от роду, закатил скандал и прокричал своей маме несусветное, чем довёл её до слёз. Мне пришлось объяснять вопящему сыну, что бы он почувствовал, если бы маму, которую он якобы не любит, вдруг забрали – я сочинял на ходу – марсиане! Той ночью я написал книгу».
Волшебные цифровые технологии позволили 35-летнему актёру (Сет Грин) сыграть 9-летнего мальчика (Майло).
Каждый день актёры одевались в одно и то же. Всё те же наряды (чёрный облегающий костюм), причёски (волосы откинуты назад, чтобы не закрывали лицо) и грим (чёрные точки, расставленные в специальных местах). Все актёры носили одинаковые чёрные облегающие костюмы, но на каждом были нашивки определённого цвета, чтобы не запутаться. У Сета был бордовый цвет, у Минди – лиловый, у Элизабет – зелёный.
На каждом чёрном костюме есть красная вертикальная полоска с правого бока, зелёная вертикальная полоска с левого бока и около 65 сенсоров, расставленных в особо обозначенных местах. Эти маркеры должны помочь управляемым и статичным камерам.
Релиз:
Доп. инфо: Для желающих сравнить, скрины сделал с тех же кадров, что и в предыдущем релизе (правда там все p-кадры, а здесь получились четыре b-кадра).
Формат 3d: Anamorph OverUnder
Качество: BDrip
Контейнер: MKV
Видео: AVC / 1920х1080p / 23,976 fps / 6 852 Kbps
Аудио#1: Русский / AC3 / 48 KHz / 5.1 ch / 384 Kbps
Аудио#2: Украинский / AC3 / 48 KHz / 5.1 ch / 384 Kbps
Аудио#3: Английский / AC3 / 48 KHz / 5.1 ch / 640 Kbps
Субтитры: внешние srt

MediaInfo

General
Unique ID : 229714583688209809965062505813985990321 (0xACD16B66E4592140A1A9DF931B9C16B1)
Complete name : F:\Downloads\MarsNeedsMoms3D.2011.halfOU.AC3.rus-ukr-eng.3D-RuGroup\MarsNeedsMoms3D.2011.halfOU.AC3.rus-ukr-eng.3D-RuGroup.mkv
Format : Matroska
File size : 5.18 GiB
Duration : 1h 28mn
Overall bit rate : 8 428 Kbps
Movie name : Mars Needs Moms 3D (Rip by Ash61)
Encoded date : UTC 2011-08-05 09:22:38
Writing application : mkvmerge v3.4.0 ('Rapunzel') сборка от May 15 2010 09:38:20
Writing library : libebml v0.8.0 + libmatroska v0.9.0
Video
ID : 1
Format : AVC
Format/Info : Advanced Video Codec
Format profile : High@L4.1
Format settings, CABAC : Yes
Format settings, ReFrames : 4 frames
Codec ID : V_MPEG4/ISO/AVC
Duration : 1h 28mn
Bit rate : 6 852 Kbps
Width : 1 920 pixels
Height : 1 080 pixels
Display aspect ratio : 16:9
Frame rate : 23.976 fps
Color space : YUV
Chroma subsampling : 4:2:0
Bit depth : 8 bits
Scan type : Progressive
Bits/(Pixel*Frame) : 0.138
Stream size : 4.22 GiB (81%)
Title : Rip by Ash61
Writing library : x264 core 113 r1884 7313bb5
Encoding settings : cabac=1 / ref=4 / deblock=1:-3:-3 / analyse=0x3:0x113 / me=umh / subme=9 / psy=1 / psy_rd=1.00:0.15 / mixed_ref=1 / me_range=16 / chroma_me=1 / trellis=2 / 8x8dct=1 / cqm=0 / deadzone=21,11 / fast_pskip=1 / chroma_qp_offset=-3 / threads=3 / sliced_threads=0 / nr=0 / decimate=1 / interlaced=0 / constrained_intra=0 / bframes=6 / b_pyramid=2 / b_adapt=2 / b_bias=0 / direct=3 / weightb=1 / open_gop=0 / weightp=2 / keyint=250 / keyint_min=23 / scenecut=40 / intra_refresh=0 / rc_lookahead=60 / rc=crf / mbtree=1 / crf=18.0 / qcomp=0.70 / qpmin=1 / qpmax=51 / qpstep=4 / ip_ratio=1.40 / aq=1:1.00
Audio #1
ID : 2
Format : AC-3
Format/Info : Audio Coding 3
Mode extension : CM (complete main)
Codec ID : A_AC3
Duration : 1h 28mn
Bit rate mode : Constant
Bit rate : 384 Kbps
Channel(s) : 6 channels
Channel positions : Front: L C R, Side: L R, LFE
Sampling rate : 48.0 KHz
Bit depth : 16 bits
Compression mode : Lossy
Stream size : 242 MiB (5%)
Language : Russian
Audio #2
ID : 3
Format : AC-3
Format/Info : Audio Coding 3
Mode extension : CM (complete main)
Codec ID : A_AC3
Duration : 1h 28mn
Bit rate mode : Constant
Bit rate : 384 Kbps
Channel(s) : 6 channels
Channel positions : Front: L C R, Side: L R, LFE
Sampling rate : 48.0 KHz
Bit depth : 16 bits
Compression mode : Lossy
Stream size : 242 MiB (5%)
Language : Ukrainian
Audio #3
ID : 4
Format : AC-3
Format/Info : Audio Coding 3
Mode extension : CM (complete main)
Codec ID : A_AC3
Duration : 1h 28mn
Bit rate mode : Constant
Bit rate : 640 Kbps
Channel(s) : 6 channels
Channel positions : Front: L C R, Side: L R, LFE
Sampling rate : 48.0 KHz
Bit depth : 16 bits
Compression mode : Lossy
Stream size : 403 MiB (8%)
Language : English
Menu
00:00:00.000 : :01
00:04:04.578 : :02
00:09:15.013 : :03
00:13:56.836 : :04
00:19:13.402 : :05
00:28:13.901 : :06
00:34:29.776 : :07
00:40:19.250 : :08
00:47:15.624 : :09
00:56:49.781 : :10
01:09:03.348 : :11
01:21:25.422 : :12

Скриншоты

Остальные раздачи этого фильма (6)
Благодарности релизеру (10)

Торрент:

Статус:

Размер:

Зарегистрирован   [ 2011-08-05 13:45 ]

проверено

5.18 GB

 
 Мнение о фильме (5)





Мультфильм прикольный смотрел ещё в 2D
 

Мультик хороший, интересно было смотреть и смысл есть =)
 

Один раз посмотреть можно, очень уж фантастический. Снято качественно, 3D на хорошем уровне.
P.S. - не люблю звёздные войны!
 

Мультик хороший мне понравился
 

На один раз.