Торренты   
 
 

 

Пастырь / Priest (Скотт Чарльз Стюарт) [2011 г., 720p, BDrip, OverUnder]

Рейтинг 3D:
80 голосов
7.9
Рейтинг фильма:
79 голосов
8.0
 
Вы должны быть авторизированы,
чтобы ставить оценки



Пастырь / Priest«И один в поле воин»

Год выпуска: 2011
Страна: США
Жанр: ужасы, фантастика, боевик, триллер
Продолжительность: 01:27:27
Перевод: Профессиональный (полное дублирование)
Русские субтитры: есть-Режиссер:
Скотт Чарльз Стюарт
В ролях:
Пол Беттани, Карл Урбан, Кэм Жиганде, Мэгги Кью, Лили Коллинз, Брэд Дуриф, Стивен Мойер, Кристофер Пламмер, Алан Дэйл, Медкен Эмик, Джейкоб Хопкинс, Дэйв Флорек, Джоэль Полински, Джош Уингейт, Джон Брейвер, Кэйси Пьеретти, Тео Кипри, Джон Гриффин, Дэвид Бакус, Роджер Стоунбернер, Дэвид Бьянчи-Описание:
Сюжет картины развивается во вселенной постапокалипсиса, где идет вечное противостояние расы людей и жутких монстров-вампиров. Кроме этого верховной властью является церковь, чьи воины - пастыри. Спустя годы, после победы людей вампиры набираются сил и решают отомстить. Священник, нарушая все церковные запреты, пытается выследить банду вампиров, похитивших его племянницу...-Релиз группы:
-Качество: 3D BDrip
Контейнер: MKV
Формат 3D: OverUnder / Вертикальная стереопара
Видео кодек: x264
Аудио кодек: AC3
Видео: x264, 1280x1440 23.976 кадр/сек 5542 Кбит/сек
Аудио 1: русский; AC3, 6 каналов, 448 Кбит/сек, 48,0 КГц
Аудио 2: английский; AC3, 6 каналов, 448 Кбит/сек, 48,0 КГц
Cубтитры: русские, английские (.srt)

СКРИНШОТЫ

MI

Общее
Уникальный идентификатор : 184193071625551949589858522344163833840 (0x8A924B937CCFC33B9741B98A12D2F7F0)
Полное имя : R:\Priest.3D.2011.BD3DRip.720p.OU.x264.AC3.3D-RuGroup.mkv
Формат : Matroska
Размер файла : 4,01 Гбайт
Продолжительность : 1 ч. 27 м.
Общий поток : 6569 Кбит/сек
Дата кодирования : UTC 2011-08-07 17:12:19
Программа кодирования : mkvmerge v3.4.0 ('Rapunzel') сборка от May 15 2010 09:38:20
Библиотека кодирования : libebml v0.8.0 + libmatroska v0.9.0
Видео
Идентификатор : 1
Формат : AVC
Формат/Информация : Advanced Video Codec
Профиль формата : High@L5.0
Параметр CABAC формата : Да
Параметр ReFrames формата : 12 кадров
Идентификатор кодека : V_MPEG4/ISO/AVC
Продолжительность : 1 ч. 27 м.
Битрейт : 5542 Кбит/сек
Ширина : 1280 пикс.
Высота : 1440 пикс.
Соотношение сторон : 0,889
Частота кадров : 23,976 кадр/сек
Цветовое пространство : YUV
Подвыборка цветности : 4:2:0
Битовая глубина : 8 бит
Тип развёртки : Прогрессивная
Бит/(Пиксели*Кадры) : 0.125
Размер потока : 3,39 Гбайт (84%)
Заголовок : Priest by 3D-RuGroup
Библиотека кодирования : x264 core 115 r1947 b5a8ad7
Настройки программы : cabac=1 / ref=12 / deblock=1:-3:-3 / analyse=0x3:0x133 / me=umh / subme=10 / psy=1 / psy_rd=1.05:0.10 / mixed_ref=1 / me_range=32 / chroma_me=1 / trellis=2 / 8x8dct=1 / cqm=0 / deadzone=21,11 / fast_pskip=0 / chroma_qp_offset=-3 / threads=3 / sliced_threads=0 / nr=0 / decimate=1 / interlaced=0 / bluray_compat=0 / constrained_intra=0 / bframes=6 / b_pyramid=2 / b_adapt=2 / b_bias=0 / direct=3 / weightb=1 / open_gop=0 / weightp=2 / keyint=250 / keyint_min=23 / scenecut=40 / intra_refresh=0 / rc_lookahead=40 / rc=crf / mbtree=1 / crf=18.0 / qcomp=0.70 / qpmin=10 / qpmax=51 / qpstep=4 / ip_ratio=1.40 / aq=1:0.70
Язык : English
Аудио #1
Идентификатор : 2
Формат : AC-3
Формат/Информация : Audio Coding 3
Расширение режима : CM (complete main)
Идентификатор кодека : A_AC3
Продолжительность : 1 ч. 27 м.
Вид битрейта : Постоянный
Битрейт : 448 Кбит/сек
Каналы : 6 каналов
Расположение каналов : Front: L C R, Side: L R, LFE
Частота : 48,0 КГц
Битовая глубина : 16 бит
Метод сжатия : С потерями
Размер потока : 280 Мбайт (7%)
Заголовок : Dub
Язык : Russian
Аудио #2
Идентификатор : 3
Формат : AC-3
Формат/Информация : Audio Coding 3
Расширение режима : CM (complete main)
Идентификатор кодека : A_AC3
Продолжительность : 1 ч. 27 м.
Вид битрейта : Постоянный
Битрейт : 448 Кбит/сек
Каналы : 6 каналов
Расположение каналов : Front: L C R, Side: L R, LFE
Частота : 48,0 КГц
Битовая глубина : 16 бит
Метод сжатия : С потерями
Размер потока : 280 Мбайт (7%)
Заголовок : Original
Язык : English
Текст #1
Идентификатор : 4
Формат : UTF-8
Идентификатор кодека : S_TEXT/UTF8
Идентификатор кодека/Информация : UTF-8 Plain Text
Заголовок : Rus
Язык : Russian
Текст #2
Идентификатор : 5
Формат : UTF-8
Идентификатор кодека : S_TEXT/UTF8
Идентификатор кодека/Информация : UTF-8 Plain Text
Заголовок : Eng
Язык : English
Меню
00:00:00.000 : :CHAPTER01
00:01:46.523 : :CHAPTER02
00:04:24.264 : :CHAPTER03
00:07:26.863 : :CHAPTER04
00:10:25.166 : :CHAPTER05
00:14:39.295 : :CHAPTER06
00:19:21.369 : :CHAPTER07
00:23:01.380 : :CHAPTER08
00:24:47.486 : :CHAPTER09
00:26:54.613 : :CHAPTER10
00:30:03.218 : :CHAPTER11
00:31:27.886 : :CHAPTER12
00:32:56.975 : :CHAPTER13
00:35:12.110 : :CHAPTER14
00:38:23.718 : :CHAPTER15
00:40:53.868 : :CHAPTER16
00:44:55.693 : :CHAPTER17
00:49:30.593 : :CHAPTER18
00:52:10.544 : :CHAPTER19
00:54:58.295 : :CHAPTER20
00:59:39.993 : :CHAPTER21
01:03:44.237 : :CHAPTER22
01:07:13.029 : :CHAPTER23
01:08:53.129 : :CHAPTER24
01:12:17.333 : :CHAPTER25
01:14:22.875 : :CHAPTER26
01:17:24.640 : :CHAPTER27
Остальные раздачи этого фильма (7)
Благодарности релизеру (3)

Торрент:

Статус:

Размер:

Зарегистрирован   [ 2011-08-07 22:23 ]

проверено

4.01 GB

 
 Мнение о фильме (27)

1, 2  След.






Неплохо рекомендую к просмотру.
 

неплохо и всё
 

фильм не плох!!!
 

Фильм да, ничего. Темноват только немного.
 

хороший фильм.
 

Нормальный фильм для любителей жанра.
 

обалденный фильм досих пор под впечатлением!!!
 

Фильм не интересный! А вот 3d не плохое.
 

И фильм неплохой и 3Д впечетляет!
 

действительно фильм не плох,и сюжет и прочее.но почему звук есть,а видео-ряда нет?
 

совсем недурно)
 

Фильм мне понравился и 3d на уроне
 

На разок
 

Фильм не плохой, посмотреть можно.
Благодарствуйте за труды Ваши!
 
сергей2010infiniti Профиль 18-Окт-2013 04:44

Хороший фильм в хорошем формате.
 

Фильм смотреть можно. 3D как во всех работах ash61 на высоте.
 

Блин , фильм норм так на раз посмотреть , а 3д никакущее же , самое худшее 3д из всего что я только видел...
 

И 3D и фильм нормуль
 

Можно посмотреть и не один раз!
Особенно любителям сюжета.
Ваши труды приносят радость всем!
 
сергей2010infiniti Профиль 08-Ноя-2013 00:02

3D слабенькое... это я так понимаю конверт, причем не лучший
а фильмец да, забавный, чистый киберпанк такой + вампиры... разок посмотреть вполне можно
 

Страница 1 из 2

1, 2  След.