Торренты   
 
 


Спасите планету 3D / S.O.S. Planet in 3D (Бен Стассен) [2002 г., OverUnder]

Рейтинг 3D:
Пока никто не голосовал
Рейтинг фильма:
Пока никто не голосовал
 
Вы должны быть авторизированы,
чтобы ставить оценки


Спасите планету 3D / S.O.S. Planet in 3D
Год выпуска: 2002
Страна: США, Бельгия
Жанр: документальный
Продолжительность: 0:36
Перевод: Профессиональный (одноголосый)
Режиссер: Бен Стассен
В ролях: Уолтер Кронкит
Описание: Из глубин океана, сквозь холод Арктики, в буйство джунглей... Вместе с уважаемым американским тележурналистом Уолтером Кронкитом (Walter Cronkite) вы прикоснетесь к трем наиболее острым экологическим проблемам нашего времени - глобальному потеплению, разрушению мест обитания океанической флоры и фауны и исчезновению лесов. Фильм "Спасите планету" раскрывает нам причины и следствия всех трех вышеупомянутых проблем окружающей среды, смоделировав изображения на компьютере. Фильм открывает новые взгляды на некоторые вызывающие обеспокоенность вопросы, и даже более красочно, чем это делаюттрадиционные СМИ.
Доп. информация: Стереоскопическое кино в стереоформате "вертикальная стереопара" (over/under) половинной высоты. Смотреть только через стерео плееры, такие как Stereoscopic, iZ3D Media Player Classic, Stereo Move Maker, в любых стерео очках, красно / синих, затворных ЖК или на стерео мониторах.

Скрины - 3 шт.



МедиаИнфо : Формат 3d - OverUnder

Код:
General
      Complete name : D:\3D\spasite_planetu_3d.avi
      Format : AVI
      Format/Info : Audio Video Interleave
      File size : 701 MiB
      Duration : 35mn 57s
      Overall bit rate : 2 726 Kbps
      Writing application : VirtualDubModRus 1.5.10.2 (build 2540/release)
      Writing library : VirtualDubMod build 2540/release
   Video #0
      ID : 0
      Format : MPEG-4 Visual
      Format settings, BVOP : Yes
      Format settings, QPel : No
      Format settings, GMC : No warppoints
      Format settings, Matrix : Default (H.263)
      Muxing mode : Packed bitstream
      Codec ID : DX50
      Codec ID/Hint : DivX 5
      Duration : 35mn 57s
      Bit rate : 2 522 Kbps
      Width : 720 pixels
      Height : 480 pixels
      Display aspect ratio : 1.500
      Frame rate : 29.970 fps
      Standard : NTSC
      Resolution : 24 bits
      Colorimetry : 4:2:0
      Scan type : Progressive
      Bits/(Pixel*Frame) : 0.244
      Stream size : 649 MiB (93%)
      Writing library : DivX 6.8.4
   Audio #1
      ID : 1
      Format : MPEG Audio
      Format version : Version 1
      Format profile : Layer 2
      Codec ID : 50
      Codec ID/Hint : MP1
      Duration : 35mn 57s
      Bit rate mode : Constant
      Bit rate : 192 Kbps
      Channel(s) : 2 channels
      Sampling rate : 48.0 KHz
      Resolution : 16 bits
      Stream size : 49.4 MiB (7%)
      Alignment : Aligned on interleaves
      Interleave, duration : 33 ms (1.00 video frame)
      Interleave, preload duration : 504 ms
Благодарности релизеру (0)

Торрент:

Статус:

Размер:

Зарегистрирован   [ 2011-08-08 22:57 ]

проверено

701 MB