Торренты   
 
 


Богатство на воде / Wealth on the Water [2010г, 720p, HDTV, Anamorph SideBySide]

Рейтинг 3D:
Пока никто не голосовал
Рейтинг фильма:
Пока никто не голосовал
 
Вы должны быть авторизированы,
чтобы ставить оценки


Богатство на воде / Wealth on the Water

Год выпуска: 2010
Жанр: Документальный
Продолжительность: 00:45:42
Перевод: Отсутствует
Ведущий: Terry L. Wilson
Описание: "Каждый год сотни самых дорогих яхт в мире бросают якорь у берегов княжества Монако, для одного из самых экслюзивных показов!
Присоединяйтесь к нашему специальному VIP-туру по этим плавучим гостиницам!"
В фильме показано роскошное убранство этих супер-яхт!
Доп. информация: Интересно посмотреть даже и без перевода. 3д в норме.Проверено на встроенном плейере ТВ Samsung UE-C7000Формат 3d: Anamorph SideBySide
Порядок ракурсов: Параллельная пара
Качество: HDTV
Контейнер: mp4
Видео: AVC / 1280х720p / 59.990 fps / 2 800 Kbps
Аудио: AC3 / 48 KHz / 2 ch / 224 Kbps

MediaInfo

General
Complete name : F:\Downloads\WealthOnTheWater.mp4
Format : MPEG-4
Format profile : Base Media / Version 2
Codec ID : mp42
File size : 1.02 GiB
Duration : 45mn 42s
Overall bit rate : 3 210 Kbps
Encoded date : UTC 2011-07-25 19:07:40
Tagged date : UTC 2011-07-25 20:23:17
Writing application : HandBrake 0.9.5 2011010300
Xtra : WM/MediaClassPrimaryID
Video
ID : 1
Format : AVC
Format/Info : Advanced Video Codec
Format profile : High@L3.2
Format settings, CABAC : Yes
Format settings, ReFrames : 4 frames
Codec ID : avc1
Codec ID/Info : Advanced Video Coding
Duration : 45mn 42s
Bit rate mode : Variable
Bit rate : 2 800 Kbps
Width : 1 280 pixels
Height : 720 pixels
Display aspect ratio : 16:9
Frame rate mode : Variable
Frame rate : 59.990 fps
Minimum frame rate : 30.000 fps
Maximum frame rate : 120.000 fps
Color space : YUV
Chroma subsampling : 4:2:0
Bit depth : 8 bits
Scan type : Progressive
Bits/(Pixel*Frame) : 0.051
Stream size : 921 MiB (88%)
Writing library : x264 core 112
Encoding settings : cabac=1 / ref=3 / deblock=1:0:0 / analyse=0x3:0x113 / me=hex / subme=7 / psy=1 / psy_rd=1.00:0.00 / mixed_ref=1 / me_range=16 / chroma_me=1 / trellis=1 / 8x8dct=1 / cqm=0 / deadzone=21,11 / fast_pskip=1 / chroma_qp_offset=-2 / threads=12 / sliced_threads=0 / nr=0 / decimate=1 / interlaced=0 / constrained_intra=0 / bframes=3 / b_pyramid=2 / b_adapt=2 / b_bias=0 / direct=1 / weightb=1 / open_gop=0 / weightp=2 / keyint=600 / keyint_min=60 / scenecut=40 / intra_refresh=0 / rc_lookahead=50 / rc=abr / mbtree=1 / bitrate=2800 / ratetol=1.0 / qcomp=0.60 / qpmin=3 / qpmax=51 / qpstep=4 / ip_ratio=1.40 / aq=1:1.00
Encoded date : UTC 2011-07-25 19:07:40
Tagged date : UTC 2011-07-25 20:23:17
Color primaries : BT.709-5, BT.1361, IEC 61966-2-4, SMPTE RP177
Transfer characteristics : BT.709-5, BT.1361
Matrix coefficients : BT.709-5, BT.1361, IEC 61966-2-4 709, SMPTE RP177
Audio #1
ID : 2
Format : AAC
Format/Info : Advanced Audio Codec
Format profile : LC
Codec ID : 40
Duration : 45mn 42s
Bit rate mode : Variable
Bit rate : 160 Kbps
Maximum bit rate : 308 Kbps
Channel(s) : 2 channels
Channel positions : Front: L R
Sampling rate : 48.0 KHz
Compression mode : Lossy
Stream size : 52.3 MiB (5%)
Encoded date : UTC 2011-07-25 19:07:40
Tagged date : UTC 2011-07-25 20:23:17
Audio #2
ID : 3
Format : AC-3
Format/Info : Audio Coding 3
Mode extension : CM (complete main)
Codec ID : ac-3
Duration : 45mn 42s
Bit rate mode : Constant
Bit rate : 224 Kbps
Channel(s) : 2 channels
Channel positions : Front: L R
Sampling rate : 48.0 KHz
Bit depth : 16 bits
Compression mode : Lossy
Stream size : 73.2 MiB (7%)
Encoded date : UTC 2011-07-25 19:07:40
Tagged date : UTC 2011-07-25 20:23:17

Скриншоты

Благодарности релизеру (4)

Торрент:

Статус:

Размер:

Зарегистрирован   [ 2011-08-09 21:34 ]

проверено

1.02 GB