Торренты   
 
 


Красная Шапка против зла / Hoodwinked Too! Hood VS. Evil [2011г, 1080p, BDrip, Anamorph OverUnder]

Рейтинг 3D:
Пока никто не голосовал
Рейтинг фильма:
Пока никто не голосовал
 
Вы должны быть авторизированы,
чтобы ставить оценки


Красная Шапка против зла
Hoodwinked Too! Hood VS. Evil

Год выпуска: 2011
Страна: США
Жанр: Мультфильм, Семейный
Продолжительность: 01:26:21
Перевод: Профессиональный (полное дублирование)
Режиссер: Майкл Д’Иса-Хоган / Michael D'Isa-Hogan
Роли дублировали (озвучивали):
Красная Шапка (Red Riding Hood) - Нонна Гришаева (Hayden Panettiere)
Большой Плохой Волк (The Big Bad Wolf) - (Patrick Warburton)
Бабушка Пакетт (Granny Puckett) - (Glenn Close)
Безумный Боров (Mad Hog) - (Cheech Marin)
Ведьма Верушка (Verushka the Witch) - (Joan Cusack)
Хансель (Hansel) - (Bill Hader)
Гретель (Gretel) - (Amy Poehler)
Ники Флипперс (Nicky Flippers) - (David Ogden Stiers)
Твичи (Twitchy) - (Cory Edwards)
Кирк-Лесник (Kirk the Woodsman) - (Martin Short)
Гигант (The Giant) - (Brad Garrett)
Боинго Банни (Boingo the Bunny) - (Andy Dick)
Мосс Тролль (Moss the Troll) - Пётр Иващенко (David Alan Grier)
Вуд / Эрнесто (Wood / Ernesto) - Пётр Иващенко, Иван Жарков (Phil LaMarr)
Коза Джапет (Japeth the Goat) - Никита Прозоровский (Benjy Gaither)
................
Описание: Красная Шапка проходит курс подготовки в шпионской школе «Хитрый Дятел» и становится секретным агентом. Глава разведшколы сразу кидает Шапку в самое пекло. Ее миссия — расследовать загадочное исчезновение Гензель и Гретель. Возможно, Шапка так бы и провалила первое задание, но отважная Бабушка, Волк — папарацци и вся банда лесной братвы сотрут в порошок любого, кто встанет на пути любимой внученьки. Пусть это будет хоть само Зло!
Доп. информация: Проверено на встроенном плейере ТВ Samsung UE-C7000
Формат 3d: Anamorph OverUnder Качество: BDrip
Контейнер: MKV
Видео: AVC / 1920х1080p / 23,976 fps / 5 391 Kbps
Аудио#1: Русский / AC3 / 48 KHz / 5.1 ch / 448 Kbps
Аудио#2: Английский / AC3 / 48 KHz / 5.1 ch / 640 Kbps

MediaInfo

General
UniqueID : 253470620538237671905800138305713419384 (0xBEB0AA72A2B7798AB8A9C6C69E1F3478)
Complete name : F:\Downloads\HoodwinkedToo!HoodVsEvil3D.halfOU.AC3.ash61.mkv
Format : Matroska
File size : 3.99 GiB
Duration : 1h 26mn
Overall bit rate : 6 611 Kbps
Movie name : HoodwinkedToo!HoodVsEvil.ash61
Encoded date : UTC 2011-09-09 11:12:21
Writing application : mkvmerge v3.4.0 ('Rapunzel') сборка от May 15 2010 09:38:20
Writing library : libebml v0.8.0 + libmatroska v0.9.0
Video
ID : 1
Format : AVC
Format/Info : Advanced Video Codec
Format profile : High@L4.1
Format settings, CABAC : Yes
Format settings, ReFrames : 4 frames
Codec ID : V_MPEG4/ISO/AVC
Duration : 1h 26mn
Bit rate : 5 391 Kbps
Width : 1 920 pixels
Height : 1 080 pixels
Display aspect ratio : 16:9
Frame rate : 23.976 fps
Color space : YUV
Chroma subsampling : 4:2:0
Bit depth : 8 bits
Scan type : Progressive
Bits/(Pixel*Frame) : 0.108
Stream size : 3.25 GiB (82%)
Title : Rip by ash61
Writing library : x264 core 113 r1884 7313bb5
Encoding settings : cabac=1 / ref=4 / deblock=1:-1:-1 / analyse=0x3:0x113 / me=umh / subme=9 / psy=1 / psy_rd=1.00:0.15 / mixed_ref=1 / me_range=16 / chroma_me=1 / trellis=2 / 8x8dct=1 / cqm=0 / deadzone=21,11 / fast_pskip=1 / chroma_qp_offset=-3 / threads=3 / sliced_threads=0 / nr=0 / decimate=1 / interlaced=0 / constrained_intra=0 / bframes=6 / b_pyramid=2 / b_adapt=2 / b_bias=0 / direct=3 / weightb=1 / open_gop=0 / weightp=2 / keyint=250 / keyint_min=23 / scenecut=40 / intra_refresh=0 / rc_lookahead=60 / rc=crf / mbtree=1 / crf=18.0 / qcomp=0.70 / qpmin=1 / qpmax=51 / qpstep=4 / ip_ratio=1.40 / aq=1:1.00
Audio #1
ID : 2
Format : AC-3
Format/Info : Audio Coding 3
Mode extension : CM (complete main)
Codec ID : A_AC3
Duration : 1h 26mn
Bit rate mode : Constant
Bit rate : 448 Kbps
Channel(s) : 6 channels
Channel positions : Front: L C R, Side: L R, LFE
Sampling rate : 48.0 KHz
Bit depth : 16 bits
Compression mode : Lossy
Stream size : 277 MiB (7%)
Language : Russian
Audio #2
ID : 3
Format : AC-3
Format/Info : Audio Coding 3
Mode extension : CM (complete main)
Codec ID : A_AC3
Duration : 1h 26mn
Bit rate mode : Constant
Bit rate : 640 Kbps
Channel(s) : 6 channels
Channel positions : Front: L C R, Side: L R, LFE
Sampling rate : 48.0 KHz
Bit depth : 16 bits
Compression mode : Lossy
Stream size : 395 MiB (10%)
Language : English
Menu
00:00:00.000 : :01
00:09:32.530 : :02
00:16:46.631 : :03
00:20:27.351 : :04
00:28:45.390 : :05
00:37:40.049 : :06
00:42:04.063 : :07
00:48:22.817 : :08
00:53:40.384 : :09
01:00:00.180 : :10
01:04:41.127 : :11
01:15:35.656 : :12

Скриншоты

9.09.2011 - Релиз обновлён - видео заменено на "правильное" и рус.аудио - на лицензию. Прошу перекачать торрент!
Благодарности релизеру (3)

Торрент:

Статус:

Размер:

Зарегистрирован   [ 2011-09-09 16:20 ]

проверено

3.99 GB