Торренты   
 
 

 

Пункт назначения 4 / The Final Destination [2009г, 1080p, BDrip, Anamorph OverUnder]

Рейтинг 3D:
81 голосов
8.6
Рейтинг фильма:
76 голосов
8.2
 
Вы должны быть авторизированы,
чтобы ставить оценки


Пункт назначения 4 / The Final Destination
Год выпуска: 2009
Страна: США
Жанр: Триллер, Ужасы
Продолжительность: 01:21:46
Перевод: Профессиональный (полное дублирование)
Режиссер: Дэвид Р. Эллис / David R. Ellis
В ролях: Бобби Кампо, Шантель Ван Сантен, Ник Зано, Хейли Уэбб, Майкелти Уильямсон, Криста Аллен...
Описание: История на этот раз вращается вокруг Ника О`Бэннона, к молодому человеку приходит видение — на автогонках произойдет ужасная трагедия, жертвами которой станут его друзья и он сам. Как и прежде группе счастливчиков, благодаря Нику, удается выжить, но смерть вовсе не спешит вычеркивать их из своего списка. Формат 3d: Anamorph OverUnder
Качество: BDrip
Контейнер: MKV
Видео: AVC / 1920х1080p / 23,976 fps / 14.7 Mbps
Аудио#1: Русский / AC3 / 48 KHz / 5.1 ch / 448 Kbps
Аудио#2: Английский / AC3 / 48 KHz / 5.1 ch / 640 Kbps

MediaInfo

General
Unique ID : 180229933144461547297034068883843902357 (0x879705C3550AED8F9F13D5CAB74CEB95)
Complete name : F:\Downloads\FinalDestination4-3D.halfOU.AC3.ash61.mkv
Format : Matroska
File size : 9.22 GiB
Duration : 1h 21mn
Overall bit rate : 16.1 Mbps
Movie name : Final Destination 4 - 3D (rip by Ash61)
Encoded date : UTC 2011-08-10 08:22:43
Writing application : mkvmerge v3.4.0 ('Rapunzel') сборка от May 15 2010 09:38:20
Writing library : libebml v0.8.0 + libmatroska v0.9.0
Video
ID : 1
Format : AVC
Format/Info : Advanced Video Codec
Format profile : High@L4.1
Format settings, CABAC : Yes
Format settings, ReFrames : 4 frames
Codec ID : V_MPEG4/ISO/AVC
Duration : 1h 21mn
Bit rate : 14.7 Mbps
Width : 1 920 pixels
Height : 1 080 pixels
Display aspect ratio : 16:9
Frame rate : 23.976 fps
Color space : YUV
Chroma subsampling : 4:2:0
Bit depth : 8 bits
Scan type : Progressive
Bits/(Pixel*Frame) : 0.296
Stream size : 8.42 GiB (91%)
Title : Rip by Ash61
Writing library : x264 core 113 r1884 7313bb5
Encoding settings : cabac=1 / ref=4 / deblock=1:-3:-3 / analyse=0x3:0x113 / me=umh / subme=9 / psy=1 / psy_rd=1.00:0.15 / mixed_ref=1 / me_range=16 / chroma_me=1 / trellis=2 / 8x8dct=1 / cqm=0 / deadzone=21,11 / fast_pskip=1 / chroma_qp_offset=-3 / threads=3 / sliced_threads=0 / nr=0 / decimate=1 / interlaced=0 / constrained_intra=0 / bframes=6 / b_pyramid=2 / b_adapt=2 / b_bias=0 / direct=3 / weightb=1 / open_gop=0 / weightp=2 / keyint=250 / keyint_min=23 / scenecut=40 / intra_refresh=0 / rc_lookahead=60 / rc=crf / mbtree=1 / crf=18.0 / qcomp=0.70 / qpmin=1 / qpmax=51 / qpstep=4 / ip_ratio=1.40 / aq=1:1.00
Audio #1
ID : 2
Format : AC-3
Format/Info : Audio Coding 3
Mode extension : CM (complete main)
Codec ID : A_AC3
Duration : 1h 21mn
Bit rate mode : Constant
Bit rate : 448 Kbps
Channel(s) : 6 channels
Channel positions : Front: L C R, Side: L R, LFE
Sampling rate : 48.0 KHz
Bit depth : 16 bits
Compression mode : Lossy
Stream size : 262 MiB (3%)
Language : Russian
Audio #2
ID : 3
Format : AC-3
Format/Info : Audio Coding 3
Mode extension : CM (complete main)
Codec ID : A_AC3
Duration : 1h 21mn
Bit rate mode : Constant
Bit rate : 640 Kbps
Channel(s) : 6 channels
Channel positions : Front: L C R, Side: L R, LFE
Sampling rate : 48.0 KHz
Bit depth : 16 bits
Compression mode : Lossy
Stream size : 375 MiB (4%)
Language : English
Menu
00:00:00.000 : :01
00:04:00.282 : :02
00:06:42.152 : :03
00:11:29.230 : :04
00:12:57.652 : :05
00:17:40.309 : :06
00:21:32.791 : :07
00:23:36.081 : :08
00:26:50.651 : :09
00:29:12.376 : :10
00:32:49.134 : :11
00:36:03.328 : :12
00:39:14.978 : :13
00:43:37.198 : :14
00:47:01.027 : :15
00:50:05.044 : :16
00:55:22.611 : :17
00:59:46.249 : :18
01:01:22.846 : :19
01:05:43.940 : :20
01:08:18.094 : :21
01:09:55.942 : :22
01:13:33.701 : :23
01:16:35.049 : :24

Скриншоты

Остальные раздачи этого фильма (7)
Благодарности релизеру (40)

Торрент:

Статус:

Размер:

Зарегистрирован   [ 2011-08-10 20:59 ]

проверено

9.22 GB