Торренты   
 
 


Серенгети / Serengeti 3D (Джордж Кэйси) [2011 г.,Anamorph SideBySide]

Рейтинг 3D:
Пока никто не голосовал
Рейтинг фильма:
Пока никто не голосовал
 
Вы должны быть авторизированы,
чтобы ставить оценки


Серенгети / Serengeti 3D
Год выпуска: 2011
Страна: Германия
Жанр: документальный фильм
Продолжительность: 1час 42 мин.
Перевод: Отсутствует
Язык Аудио: Немецкий
Режиссер: Джордж Кэйси
Описание: Познакомьтесь с огромным заповедником дикой природы Африки Серенгети, который раскинулся на территории двух стран: Кении и Танзании. Ежегодная миграция миллионов зебр, буйволов, антилоп это потрясающее зрелище по своим масштабам и разнообразию. В пути их подстерегает немало опасностей: львы, леопарды, гиены, крокодилы и другие не менее опасные хищники.
Фильм производства студии IMAX
DVD FAB
Формат 3d: Anamorph SideBySide
Порядок ракурсов: Параллельная пара

Скриншоты

МЕдиаИнфо

Общее
Уникальный идентификатор : 179441074499386869722676099391176876629 (0x86FF18076A284E02B4BDEB50B31CA255)
Полное имя : D:\торрент файлы\Serengeti.3D.German.DTS.Half.SBS.x264.1080p.mkv
Формат : Matroska
Размер файла : 15,4 Гбайт
Продолжительность : 1 ч. 42 м.
Общий поток : 21,5 Мбит/сек
Название фильма : Serengeti.3D.German.DTS.Half.SBS.x264.1080p.-.MovieFan
Дата кодирования : UTC 2011-08-08 13:53:52
Программа кодирования : DVDFab
Библиотека кодирования : libebml v0.7.8 + libmatroska v0.8.1
Видео
Идентификатор : 1
Формат : AVC
Формат/Информация : Advanced Video Codec
Профиль формата : High@L5.1
Параметр CABAC формата : Да
Параметр ReFrames формата : 2 кадра
Идентификатор кодека : V_MPEG4/ISO/AVC
Продолжительность : 1 ч. 42 м.
Битрейт : 19,6 Мбит/сек
Ширина : 1920 пикс.
Высота : 1080 пикс.
Соотношение сторон : 16:9
Частота кадров : 23,976 кадр/сек
Цветовое пространство : YUV
Подвыборка цветности : 4:2:0
Битовая глубина : 8 бит
Тип развёртки : Прогрессивная
Бит/(Пиксели*Кадры) : 0.394
Размер потока : 14,0 Гбайт (91%)
Библиотека кодирования : x264 core
Основные цвета : BT.709-5, BT.1361, IEC 61966-2-4, SMPTE RP177
Характеристики трансфера : BT.709-5, BT.1361
Коэффициенты матрицы : BT.709-5, BT.1361, IEC 61966-2-4 709, SMPTE RP177
Аудио
Идентификатор : 2
Формат : DTS
Формат/Информация : Digital Theater Systems
Идентификатор кодека : A_DTS
Продолжительность : 1 ч. 42 м.
Вид битрейта : Постоянный
Битрейт : 1510 Кбит/сек
Каналы : 6 каналов
Расположение каналов : Front: L C R, Side: L R, LFE
Частота : 48,0 КГц
Битовая глубина : 16 бит
Метод сжатия : С потерями
Размер потока : 1,08 Гбайт (7%)
Меню
00:00:00.000 : en:(01)00:00:00:000
00:09:31.320 : en:(02)00:09:31:320
00:20:38.362 : en:(03)00:20:38:362
00:31:12.871 : en:(04)00:31:12:871
00:41:29.111 : en:(05)00:41:29:111
00:50:54.176 : en:(06)00:50:54:176
00:59:20.431 : en:(07)00:59:20:431
01:07:15.281 : en:(08)01:07:15:281
01:19:08.410 : en:(09)01:19:08:410
01:27:41.506 : en:(10)01:27:41:506
01:38:40.497 : en:(11)01:38:40:497
Благодарности релизеру (0)

Торрент:

Статус:

Размер:

Зарегистрирован   [ 2011-08-13 20:56 ]

© закрыто правообладателем

15.37 GB

 
Комментарии:

1, 2  След.






Блин...я то уже размечтался что Миссия Серенети вышла...мечты, мечты.... :(
 

Конвертация 2D-3D не очень качественная. Все равно спасибо.
 

Oreon, авто-конвертация бывает качественная? :D
 

Так то да ) А вообще не плохо бы таким шрифтом как написано - IMAX - писать - авто-конвертация - в заголовке.
 

ууу...
 

зачем вообще конвертировать?
 

звук на тв не поддерживается,сейчас перегоняю в ас3,если надо выложу для тв
 

kanasyvrik
странно, на самсунге поддерживается
 

Звук в ДТС - Самсунги понимают, а другие ТВ - нет (как правило).
 

ash61
Саша, подскажи, если знаешь, какой "свисток" приобрести, чтоб в самсунге работал wi-fi ? родной самсунговский оч. дорого стоит
 

Толя, пока не контактировал с Вай-Фаем, сорри!
 

на самсунговском интернет тв появилось приложение, показывающее 3Д . 3D Explorer назвыватся. но нужно высокоскоростное инет соединение
 

на самсунговском интернет тв появилось приложение, показывающее 3Д . 3D Explorer назвыватся. но нужно высокоскоростное инет соединение
100 лет в обед есть гаджет для 3Д
яндекс в помощ
 

Какой смысл выкладывать автоконвертацию, если телевизоры сами могут её делать из 2D??
А если уж выкладывайте, то хотя бы указывайте крупным красным шрифтом - АВТОКОНВЕРТАЦИЯ.
 

ANProni
ну так смотри на своем телевизоре программу "Время" в 3Д, че тогда суда лезть и высказывать свои претензии? Русским языком написано: DVD FAB!!!
 

kol123
сам то понял, че написал?
 

Оригинал фильм 2Д 1994г. Конечно фейк, причем "плоскодонка", на скринах немного разнесено максимум два плоских плана, есть и просто из одной плоскости в перспективу. Ну а любые автоконверты приравниваются к фейкам которые здесь запрещены, так что ANProni прав:)
Анатолий, при чем здесь ФАБ и 2Д-3Д, тогда уточняйте, ФАБ это в смысле чем кодировали видео не трогая изначальное реальное 3Д или в качестве 2Д-3Д конвертера+кодирование. Потому как обычно приставка ФАБ указанная в релизах ни как не относится к 3Д а только к качеству кодирования, и статус "сомнительно" ставится подразумевая отсутствующий статус "временно":) до появления более качественного рипа.
Закрыто.
 

Zagruzin
Согласен!
 

Возобновитe пожалуста раздачу. Очень хочу скачать!
 

amila
это к администрции форума
 

Страница 1 из 2

1, 2  След.