Торренты   
 
 

 

Тайна красной планеты 3D / Mars Needs Moms 3D (Саймон Уэллс / Simon Wells) [2011 г., 720p, BDrip, OverUnder]

Рейтинг 3D:
21 голосов
7.9
Рейтинг фильма:
22 голосов
8.1
 
Вы должны быть авторизированы,
чтобы ставить оценки


Тайна красной планеты 3D / Mars Needs Moms 3D"The perfect family film in every way"
Год выпуска: 2011
Страна: США
Жанр: мультфильм, фантастика, комедия, приключения, семейный
Продолжительность: 01:28:02
Перевод: Профессиональный (полное дублирование)
Русские субтитры: есть-Режиссер:
Саймон Уэллс / Simon Wells
Роли озвучивали:
Сет Грин, Дэн Фоглер, Джоан Кьюсак, Элизабет Арнуа, Мелинда Стерлинг, Кевин Кахун, Том Эверетт Скотт, Жаки Барнбрук, Мэттью Хенерсон, Адам Дженнингс-Описание:
Есть мерзкую брокколи, выносить мусор, рано ложиться спать — кому вообще нужны мамы, заставляющие это делать? Так думал Майло, пока не обнаружил, что его маму похитили марсиане. Тут-то и оказалось, что ему предстоит отправиться на другую планету, чтобы найти маму и вернуть ее домой.-Релиз группы:
-Качество: BDrip
Контейнер: MKV
Формат 3D: OverUnder / Вертикальная стереопара
Видео кодек: x264
Аудио кодек: AC3
Видео: x264, 1280x1136, 23.976 кадр/сек, 6270 Кбит/сек
Аудио 1: русский; AC3, 6 каналов, 384 Кбит/сек, 48,0 КГц
Аудио 2: английский; AC3, 6 каналов, 384 Кбит/сек, 48,0 КГц
Cубтитры: русские, английские, украинские (.srt)

Знаете ли вы, что...

  • Книга Беркли Брезеда «Марсу нужны мамы», по которой снят фильм «Тайна Красной планеты», появилась на свет после ссоры между его женой и сыном. Главного героя и в книге, и в фильме зовут так же, как сына Брезеда – Майло.
  • Вот что говорит сам Брезед: «Фильма бы не было, если бы 10 августа 2006 года на столе Брезедов не осталась недоеденной тарелка цветной капусты. Настоящий Майло, 5 лет от роду, закатил скандал и прокричал своей маме несусветное, чем довёл её до слёз. Мне пришлось объяснять вопящему сыну, что бы он почувствовал, если бы маму, которую он якобы не любит, вдруг забрали – я сочинял на ходу – марсиане! Той ночью я написал книгу».
  • Волшебные цифровые технологии позволили 35-летнему актёру (Сет Грин) сыграть 9-летнего мальчика (Майло).
  • Каждый день актёры одевались в одно и то же. Всё те же наряды (чёрный облегающий костюм), причёски (волосы откинуты назад, чтобы не закрывали лицо) и грим (чёрные точки, расставленные в специальных местах). Все актёры носили одинаковые чёрные облегающие костюмы, но на каждом были нашивки определённого цвета, чтобы не запутаться. У Сета был бордовый цвет, у Минди – лиловый, у Элизабет – зелёный.
  • На каждом чёрном костюме есть красная вертикальная полоска с правого бока, зелёная вертикальная полоска с левого бока и около 65 сенсоров, расставленных в особо обозначенных местах. Эти маркеры должны помочь управляемым и статичным камерам.

СКРИНШОТЫ

MI

Общее
Уникальный идентификатор : 211031469827096644548995611833509061609 (0x9EC32EC51637946781427A717B0BA3E9)
Полное имя : L:\MarsNeedsMoms.3D.2011.BD3DRip.720p.OU.x264.AC3.3D-RuGroup.mkv
Формат : Matroska
Размер файла : 4,42 Гбайт
Продолжительность : 1 ч. 28 м.
Общий поток : 7181 Кбит/сек
Название фильма : MarsNeedsMoms.3D.2011.BD3DRip.720p.OU.x264.AC3.3D-RuGroup
Дата кодирования : UTC 2011-08-14 09:46:21
Программа кодирования : mkvmerge v3.4.0 ('Rapunzel') сборка от May 15 2010 09:38:20
Библиотека кодирования : libebml v0.8.0 + libmatroska v0.9.0
Видео
Идентификатор : 1
Формат : AVC
Формат/Информация : Advanced Video Codec
Профиль формата : High@L4.0
Параметр CABAC формата : Да
Параметр ReFrames формата : 5 кадров
Идентификатор кодека : V_MPEG4/ISO/AVC
Продолжительность : 1 ч. 28 м.
Битрейт : 6270 Кбит/сек
Ширина : 1280 пикс.
Высота : 1136 пикс.
Соотношение сторон : 1,127
Частота кадров : 23,976 кадр/сек
Цветовое пространство : YUV
Подвыборка цветности : 4:2:0
Битовая глубина : 8 бит
Тип развёртки : Прогрессивная
Бит/(Пиксели*Кадры) : 0.180
Размер потока : 3,86 Гбайт (87%)
Заголовок : MarsNeedsMoms by RuGroup
Библиотека кодирования : x264 core 115 r1947 b5a8ad7
Настройки программы : cabac=1 / ref=5 / deblock=1:-3:-3 / analyse=0x3:0x133 / me=umh / subme=10 / psy=1 / psy_rd=1.00:0.25 / mixed_ref=1 / me_range=32 / chroma_me=1 / trellis=2 / 8x8dct=1 / cqm=0 / deadzone=21,11 / fast_pskip=0 / chroma_qp_offset=-4 / threads=3 / sliced_threads=0 / nr=0 / decimate=1 / interlaced=0 / bluray_compat=0 / constrained_intra=0 / bframes=6 / b_pyramid=2 / b_adapt=2 / b_bias=0 / direct=3 / weightb=1 / open_gop=0 / weightp=2 / keyint=250 / keyint_min=23 / scenecut=40 / intra_refresh=0 / rc_lookahead=60 / rc=crf / mbtree=1 / crf=18.0 / qcomp=0.70 / qpmin=0 / qpmax=51 / qpstep=4 / ip_ratio=1.40 / aq=1:0.70
Язык : English
Аудио #1
Идентификатор : 2
Формат : AC-3
Формат/Информация : Audio Coding 3
Расширение режима : CM (complete main)
Идентификатор кодека : A_AC3
Продолжительность : 1 ч. 28 м.
Вид битрейта : Постоянный
Битрейт : 384 Кбит/сек
Каналы : 6 каналов
Расположение каналов : Front: L C R, Side: L R, LFE
Частота : 48,0 КГц
Битовая глубина : 16 бит
Метод сжатия : С потерями
Размер потока : 242 Мбайт (5%)
Заголовок : Dub
Язык : Russian
Аудио #2
Идентификатор : 3
Формат : AC-3
Формат/Информация : Audio Coding 3
Расширение режима : CM (complete main)
Идентификатор кодека : A_AC3
Продолжительность : 1 ч. 28 м.
Вид битрейта : Постоянный
Битрейт : 384 Кбит/сек
Каналы : 6 каналов
Расположение каналов : Front: L C R, Side: L R, LFE
Частота : 48,0 КГц
Битовая глубина : 16 бит
Метод сжатия : С потерями
Размер потока : 242 Мбайт (5%)
Заголовок : Original
Язык : English
Текст #1
Идентификатор : 4
Формат : UTF-8
Идентификатор кодека : S_TEXT/UTF8
Идентификатор кодека/Информация : UTF-8 Plain Text
Заголовок : rus
Язык : Russian
Текст #2
Идентификатор : 5
Формат : UTF-8
Идентификатор кодека : S_TEXT/UTF8
Идентификатор кодека/Информация : UTF-8 Plain Text
Заголовок : eng
Язык : English
Текст #3
Идентификатор : 6
Формат : UTF-8
Идентификатор кодека : S_TEXT/UTF8
Идентификатор кодека/Информация : UTF-8 Plain Text
Заголовок : ukr
Язык : Ukrainian
Меню
00:00:00.000 : :Life on the Red Planet / Main title
00:04:04.578 : :Life on Planet Earth
00:09:15.013 : :The Abduction
00:13:56.836 : :Milo on Mars
00:19:13.402 : :Milo meets Gribble
00:28:13.901 : :The rescue attempt
00:34:29.776 : :Flower power
00:40:19.250 : :Gribble's rescue
00:47:15.624 : :Martian Families
00:56:49.781 : :Hatchlings
01:09:03.348 : :Journey home
01:21:25.422 : :End credits
Остальные раздачи этого фильма (6)
Благодарности релизеру (0)

Торрент:

Статус:

Размер:

Зарегистрирован   [ 2011-08-14 16:55 ]

проверено

4.42 GB

 
 Мнение о фильме (5)





Мультфильм прикольный смотрел ещё в 2D
 

Мультик хороший, интересно было смотреть и смысл есть =)
 

Один раз посмотреть можно, очень уж фантастический. Снято качественно, 3D на хорошем уровне.
P.S. - не люблю звёздные войны!
 

Мультик хороший мне понравился
 

На один раз.