Торренты   
 
 


Испытание бюджетной FullHD спарки [2011 г., Anamorph SideBySide]

Рейтинг 3D:
Пока никто не голосовал
Рейтинг фильма:
Пока никто не голосовал
 
Вы должны быть авторизированы,
чтобы ставить оценки


Испытание бюджетной FullHD спарки

Год выпуска: 2011
Страна: Украина
Жанр: Свадьба
Продолжительность: 25 мин
Автор: Арчил Сванидзе
Описание: Испытывал спарку из 2-х камер sanyoGH2
Формат 3d: Anamorph SideBySide
Порядок ракурсов: Перекрестная пара

Скриншоты




media info

Format : MPEG-4
Format profile : Base Media / Version 2
Codec ID : mp42
File size : 1.45 GiB
Duration : 24mn 56s
Overall bit rate : 8 318 Kbps
Encoded date : UTC 2011-08-14 19:15:42
Tagged date : UTC 2011-08-14 19:15:42
Video #2
ID : 2
Format : AVC
Format/Info : Advanced Video Codec
Format profile : Main@L5.0
Format settings, CABAC : Yes
Format settings, ReFrames : 5 frames
Codec ID : avc1
Codec ID/Info : Advanced Video Coding
Duration : 24mn 56s
Bit rate mode : Variable
Bit rate : 7 993 Kbps
Width : 1 920 pixels
Height : 1 080 pixels
Display aspect ratio : 16:9
Frame rate mode : Constant
Frame rate : 29.970 fps
Standard : NTSC
Color space : YUV
Chroma subsampling : 4:2:0
Bit depth : 8 bits
Scan type : Progressive
Bits/(Pixel*Frame) : 0.129
Stream size : 1.39 GiB (96%)
Language : English
Encoded date : UTC 2011-08-14 19:15:42
Tagged date : UTC 2011-08-14 19:15:42
Audio #1
ID : 1
Format : AAC
Format/Info : Advanced Audio Codec
Format version : Version 4
Format profile : LC
Format settings, SBR : No
Codec ID : 40
Duration : 24mn 56s
Bit rate mode : Constant
Bit rate : 320 Kbps
Channel(s) : 2 channels
Channel positions : Front: L R
Sampling rate : 44.1 KHz
Stream size : 57.1 MiB (4%)
Language : English
Encoded date : UTC 2011-08-14 19:15:42
Tagged date : UTC 2011-08-14 19:15:42
Благодарности релизеру (0)

Торрент:

Статус:

Размер:

Зарегистрирован   [ 2011-08-17 00:25 ]

проверено

1.45 GB