Торренты   
 
 


Майкл Джексон "Earth Song" [2009 г., Anamorph SideBySide]

Майкл Джексон "Earth Song"
Год выпуска: 2009
Страна: США
Жанр: Ролики HD
Продолжительность: 00:07:07
Описание: Отрывок из фильма-концерта «Майкл Джексон: Вот и все» Клип на композицию "Earth Song"
Формат 3d: Anamorph SideBySide
Порядок ракурсов: Параллельная пара
Видео:
Качество: BDrip
Контейнер: MKV
Видео: AVC / 1920х1080p / 23,976 fps / 7.7 Mbps
Аудио: Английский / AC3 / 48 KHz / 5.1 ch / 448 Kbps
General
Complete name: THIS_IS_IT_3D.Title.mkv
Format : Matroska
File size : 391 MiB
Duration : 7mn 7s
Overall bit rate : 7 673 Kbps
Movie name : THIS_IS_IT_3D.Title.Bluray3DRip
Encoded date : UTC 2011-08-20 19:35:54
Writing application : mkvmerge v3.0.0 ('Hang up your Hang-Ups') built on Dec 12 2009 15:20:35
Writing library : libebml v0.7.9 + libmatroska v0.8.1
Video #1
ID : 1
Format : AVC
Format/Info : Advanced Video Codec
Format profile : High@L5.1
Format settings, CABAC : Yes
Format settings, ReFrames : 2 frames
Muxing mode : Container profile=Unknown@5.1
Codec ID : V_MPEG4/ISO/AVC
Duration : 7mn 7s
Bit rate : 7 073 Kbps
Width : 1 920 pixels
Height : 1 080 pixels
Display aspect ratio : 16:9
Frame rate : 23.976 fps
Color space : YUV
Chroma subsampling : 4:2:0
Bit depth : 8 bits
Scan type : Progressive
Bits/(Pixel*Frame) : 0.142
Stream size : 360 MiB (92%)
Color primaries : BT.709-5, BT.1361, IEC 61966-2-4, SMPTE RP177
Transfer characteristics : BT.709-5, BT.1361
Matrix coefficients : BT.709-5, BT.1361, IEC 61966-2-4 709, SMPTE RP177
Audio #2
ID : 2
Format : AC-3
Format/Info : Audio Coding 3
Mode extension : CM (complete main)
Codec ID : A_AC3
Duration : 7mn 7s
Bit rate mode : Constant
Bit rate : 448 Kbps
Channel(s) : 6 channels
Channel positions : Front: L C R, Side: L R, LFE
Sampling rate : 48.0 KHz
Bit depth : 16 bits
Video delay : 17ms
Stream size : 22.8 MiB (6%)

Скриншоты






Комментарии:





Если устроит качество, выложу весь концерт...Я Майкла люблю, делал для себя, мне нравится...
 

выкладывай не сомневайся
 

Повтор - http://torrents3d.ru/viewtopic.php?t=886. Закрыто.
 

Топик был перенесен из форума Ролики HD в форум Архив

KinoKRITIK