Торренты   
 
 

 

Югио! 3D / Yu-Gi-Oh! 3D Bonds Beyond Time (Кеничи Такешита) [2010 г., Anamorph SideBySide]

Рейтинг 3D:
2 голосов
8.0
Рейтинг фильма:
2 голосов
5.0
 
Вы должны быть авторизированы,
чтобы ставить оценки


Югио! 3D / Yu-Gi-Oh! 3D Bonds Beyond Time / Yu-Gi-Oh! 3D Bonds Beyond Time
Год выпуска: 2010
Страна: Япония
Жанр: приключение, фэнтези, фантастика
Продолжительность: 00:49:58
Перевод: Профессиональный (двухголосый)
Режиссер: Кеничи Такешита
Описание: Обеспокоенный ужасным будущем, Парадокс хочет изменить его. Для этого он перемещается во времени и хочет совершить диверсию, думая что только так изменит история к лучшему. Юги, Джудай и Юсей с этим не согласны и вызывают его на дуэль.
Доп. информация: Фильм посвящен десятилетию аниме Yu-Gi-Oh! и в нем присутствую главные герои из аниме Yu-Gi-Oh! DM, Yu-Gi-Oh! GX и Yu-Gi-Oh!5D, поэтому, чтобы лучше понимать происходящие, рекомендуется ознакомится со всеми тремя аниме.
Формат 3d: Anamorph SideBySide
Порядок ракурсов: Параллельная пара

Скриншоты

MediaInfo

General
Format : Matroska
File size : 5.21 GiB
Duration : 49mn 58s
Overall bit rate : 14.9 Mbps
Movie name : YU_GI_OH.Title0.Bluray3DRip
Encoded date : UTC 2011-08-28 03:53:37
Writing application : mkvmerge v4.4.0 ('Die Wiederkehr') сборка от Oct 31 2010 21:52:48
Writing library : libebml v1.0.0 + libmatroska v1.0.0
Video
ID : 1
Format : AVC
Format/Info : Advanced Video Codec
Format profile : High@L4.1
Format settings, CABAC : Yes
Format settings, ReFrames : 2 frames
Codec ID : V_MPEG4/ISO/AVC
Duration : 49mn 58s
Bit rate mode : Variable
Bit rate : 14.2 Mbps
Maximum bit rate : 30.0 Mbps
Width : 1 920 pixels
Height : 1 080 pixels
Display aspect ratio : 16:9
Frame rate : 23.976 fps
Color space : YUV
Chroma subsampling : 4:2:0
Bit depth : 8 bits
Scan type : Progressive
Bits/(Pixel*Frame) : 0.287
Stream size : 4.97 GiB (95%)
Color primaries : BT.709-5, BT.1361, IEC 61966-2-4, SMPTE RP177
Transfer characteristics : BT.709-5, BT.1361
Matrix coefficients : BT.709-5, BT.1361, IEC 61966-2-4 709, SMPTE RP177
Audio
ID : 2
Format : AC-3
Format/Info : Audio Coding 3
Mode extension : CM (complete main)
Codec ID : A_AC3
Duration : 49mn 58s
Bit rate mode : Constant
Bit rate : 384 Kbps
Channel(s) : 2 channels
Channel positions : Front: L R
Sampling rate : 44.1 KHz
Bit depth : 16 bits
Compression mode : Lossy
Stream size : 137 MiB (3%)
Заменил звук на АС-3
Благодарности релизеру (1)

Торрент:

Статус:

Размер:

Зарегистрирован   [ 2011-08-28 18:04 ]

проверено

5.21 GB