Торренты   
 
 


Набор трейлеров [2011 г., Anamorph SideBySide]

Рейтинг 3D:
Пока никто не голосовал
Рейтинг фильма:
Пока никто не голосовал
 
Вы должны быть авторизированы,
чтобы ставить оценки


Набор трейлеров
Год выпуска: 2011
Продолжительность: 29 мин
Описание:
01. Final Destination 5 - Trailer
02. Shark Night - Trailer
03. Conan the Barbarian - Trailer
04. Three Musketeers - Trailer
05. Captain America - Trailer
06. Avatar SE - Trailer
07. 3D ! and Dzen - Teaser
08. 3D ! and Dzen - Trailer
09. Smurfs - Teaser
10. Spy Kids 4D - Trailer
11. Horrid Henry - Trailer
12. The Adventures of TINTIN - Trailer
13. Puss in Boots - Teaser
14. Puss in Boots - Trailer
15. Ronal the Barbaren - Trailer
16. Happy Feet Two - Trailer
17. СМЕШАРИКИ (Smeshariki) - Teaser
18. РЖЕВСКИЙ против НАПОЛЕОНА (Rzevskiy VS. Napoleon) - Trailer
Язык: русский
Формат 3d: Анаморфная Вертикальная стереопара 1920x1080p

MediaInfo

General
Format : Matroska
File size : 2.29 GiB
Duration : 29mn 42s
Overall bit rate : 11.0 Mbps
Encoded date : UTC 2011-08-28 15:27:13
Writing application : mkvmerge v4.4.0 ('Die Wiederkehr') сборка от Oct 31 2010 21:52:48
Writing library : libebml v1.0.0 + libmatroska v1.0.0
Video
ID : 1
Format : AVC
Format/Info : Advanced Video Codec
Format profile : High@L4.0
Format settings, CABAC : Yes
Format settings, ReFrames : 4 frames
Codec ID : V_MPEG4/ISO/AVC
Duration : 29mn 42s
Bit rate : 10.2 Mbps
Width : 1 920 pixels
Height : 1 080 pixels
Display aspect ratio : 16:9
Frame rate : 23.976 fps
Color space : YUV
Chroma subsampling : 4:2:0
Bit depth : 8 bits
Scan type : Progressive
Bits/(Pixel*Frame) : 0.205
Stream size : 2.11 GiB (92%)
Writing library : x264 core 115 r1995 c1e60b9
Encoding settings : cabac=1 / ref=4 / deblock=1:-2:-2 / analyse=0x3:0x113 / me=umh / subme=9 / psy=1 / psy_rd=1.00:0.15 / mixed_ref=1 / me_range=16 / chroma_me=1 / trellis=2 / 8x8dct=1 / cqm=0 / deadzone=21,11 / fast_pskip=1 / chroma_qp_offset=-3 / threads=6 / sliced_threads=0 / nr=0 / decimate=1 / interlaced=0 / bluray_compat=0 / constrained_intra=0 / bframes=6 / b_pyramid=0 / b_adapt=2 / b_bias=0 / direct=3 / weightb=1 / open_gop=0 / weightp=2 / keyint=250 / keyint_min=23 / scenecut=40 / intra_refresh=0 / rc_lookahead=40 / rc=crf / mbtree=1 / crf=18.0 / qcomp=0.60 / qpmin=10 / qpmax=69 / qpstep=4 / ip_ratio=1.40 / aq=1:1.00
Audio
ID : 2
Format : AC-3
Format/Info : Audio Coding 3
Mode extension : CM (complete main)
Codec ID : A_AC3
Duration : 29mn 42s
Bit rate mode : Constant
Bit rate : 640 Kbps
Channel(s) : 6 channels
Channel positions : Front: L C R, Side: L R, LFE
Sampling rate : 48.0 KHz
Bit depth : 16 bits
Compression mode : Lossy
Stream size : 136 MiB (6%)

Сриншоты


Первая моя анаморфная стереопара - проверяйте на телеках и отпишитесь
Благодарности релизеру (0)

Торрент:

Статус:

Размер:

Зарегистрирован   [ 2011-08-28 19:35 ]

проверено

2.29 GB