Торренты   
 
 


Король Лев 3D / The Lion King 3D (Роджер Аллерс) [1994 г., Anamorph SideBySide]

Рейтинг 3D:
Пока никто не голосовал
Рейтинг фильма:
Пока никто не голосовал
 
Вы должны быть авторизированы,
чтобы ставить оценки


Король Лев 3D / The Lion King 3D
Год выпуска: 1994
Страна: США
Жанр: Мультфильм, приключения, драма, семейный
Продолжительность: 01:28:48
Перевод: Профессиональный (одноголосый) (А. Гаврилов (Поздний, ~2008..09 гг))
Режиссер: Роджер Аллерс
В ролях: Джереми Айронс (Scar, озвучка), Мэттью Бродерик (! Simba, озвучка), Натан Лейн (Timon, озвучка), Эрни Сабелла (Pumbaa, озвучка), Джеймс Эрл Джонс (Mufasa, озвучка), Мойра Келли (! Nala, озвучка), Роуэн Эткинсон (Zazu, озвучка), Вупи Голдберг (Shenzi, озвучка), Чич Марин (Banzai, озвучка), Джонатан Тейлор Томас (Young Simba, озвучка), Никета Калам (Young Nala, озвучка), Роберт Гийом (Rafiki, озвучка)
Описание: У величественного Короля-Льва Муфасы рождается наследник по имени Симба. Уже в детстве любознательный малыш становится жертвой интриг своего завистливого дяди Шрама, мечтающего о власти.
Симба познаёт горе утраты, предательство и изгнание, но в конце концов обретает верных друзей и находит любимую. Закалённый испытаниями, он в нелёгкой борьбе отвоёвывает своё законное место в «Круге жизни», осознав, что значит быть настоящим Королём.
Формат 3d: Anamorph SideBySide
Порядок ракурсов: Параллельная пара

MediaInfo

General
Format : Matroska
File size : 6.48 GiB
Duration : 1h 28mn
Overall bit rate : 10.4 Mbps
Movie name : The Lion King 3D - 3D4U
Encoded date : UTC 2011-08-28 16:23:16
Writing application : mkvmerge v4.4.0 ('Die Wiederkehr') сборка от Oct 31 2010 21:52:48
Writing library : libebml v1.0.0 + libmatroska v1.0.0
Video
ID : 1
Format : AVC
Format/Info : Advanced Video Codec
Format profile : High@L4.1
Format settings, CABAC : Yes
Format settings, ReFrames : 2 frames
Codec ID : V_MPEG4/ISO/AVC
Duration : 1h 28mn
Bit rate : 9 793 Kbps
Width : 1 920 pixels
Height : 1 080 pixels
Display aspect ratio : 16:9
Frame rate : 23.976 fps
Color space : YUV
Chroma subsampling : 4:2:0
Bit depth : 8 bits
Scan type : Progressive
Bits/(Pixel*Frame) : 0.197
Stream size : 6.08 GiB (94%)
Writing library : x264 core
Language : English
Color primaries : BT.709-5, BT.1361, IEC 61966-2-4, SMPTE RP177
Transfer characteristics : BT.709-5, BT.1361
Matrix coefficients : BT.709-5, BT.1361, IEC 61966-2-4 709, SMPTE RP177
Audio
ID : 2
Format : AC-3
Format/Info : Audio Coding 3
Mode extension : CM (complete main)
Codec ID : A_AC3
Duration : 1h 28mn
Bit rate mode : Constant
Bit rate : 448 Kbps
Channel(s) : 6 channels
Channel positions : Front: L C R, Side: L R, LFE
Sampling rate : 48.0 KHz
Bit depth : 16 bits
Compression mode : Lossy
Delay relative to video : 20s 500ms
Stream size : 285 MiB (4%)

Скриншоты

ВНИМАНИЕ! на телевизорах не идет звук - ждите другую раздачу!
Благодарности релизеру (0)

Торрент:

Статус:

Размер:

Зарегистрирован   [ 2011-08-28 20:54 ]

x закрыто

6.48 GB

 
Комментарии:

Пред.  1, 2






Я сделал, у меня гаврилова Самсунг читает, вечером выложу. Гаврилов + оригинал инглиш.
тогда и дубляж прилепи пожалуйста!!!
 

Полноформаточку бы
 

спасибо. 3D отличное
но звук не работает.
самсунг седьмая серия
 

Самсунг D7000, звук не работает! Просьба к релизеру исправить ситуацию!!!
 

Стереоскопик плеер не воспроизводит... и нвидиа 3д вжион тоже.)))
 

Elig0s
проверь на обычном 2Д плеере типа Media Player Classic
может кодеки глюканули
у меня на стереоскопике все пашет
 

Alakazam
исправить не могу так как телевизора нет и проверять не на чем, ждите раздачу от ash61
 

дублированные элтонджоновские песни - это извращение почище мужеложества!..
Моё мнение всегда одно ,песни (если есть в фильме на иностранном языке) ,их надо давать в оригинале с субтитрами на русском.
 

ну не знаю на лг 6500 все ок
 

Спасибо. На лыже 575 звук в норме с внутреннего плеера.
К стати-никто не знает когда мульт ВВЕРХ появится в 3d.,а то смотрю на торрентах а его нет!?
 

Дитер
а кто сказал что он вообще появится?
 

> на телевизорах не идет звук
Странно, а почему? Вроде, судя по медиаинфо абсолютно стандартная дорого AC-3 чего б ей и не идти?
 

На нашем торенте выложили: Blu-ray 3D [3D/2D] Disc, полное дублирование + двухголосый закадровый ][Half SideBySide / Горизонтальная анаморфная стереопара.Если кого заинтересовало-то поставлю на закачку.
 

Народ ну добавьте дубляж пусть каждый выбирает сам что ему нужно. Тем более что нигде больше анаморф найти не могу... Спасибо
 

Блин, когда уже рип с дубляжем появится?
 

вот отдельными файлами
задержку ставить 20500
спасибо !!! пришил дорогу
все в ажуре !
дубляж.
 

А почему никто не раздает((
 

А почему никто не раздает((
Seeders: [ 23 | 184 KB/s ]
Leechers: [ 2 | 307 KB/s ]
они просто покурить вышли :)
 

Поглощено - http://torrents3d.ru/viewtopic.php?t=1883. Закрыто.
 

Топик был перенесен из форума Фильмы HD в форум Архив

KinoKRITIK
 

Страница 2 из 2

Пред.  1, 2