Торренты   
 
 

 

Король Лев 3D / The Lion King 3D (Роджер Аллерс) [1994 г., Anamorph SideBySide]

Рейтинг 3D:
1 голосов
9.0
Рейтинг фильма:
1 голосов
10
 
Вы должны быть авторизированы,
чтобы ставить оценки


Король Лев 3D / The Lion King 3D
Год выпуска: 1994
Страна: США
Жанр: Мультфильм, приключения, драма, семейный
Продолжительность: 01:28:48
Перевод: А.Гаврилов
А.Кущак
Английский(оригинал)
Режиссер: Роджер Аллерс
В ролях: Джереми Айронс (Scar, озвучка), Мэттью Бродерик (! Simba, озвучка), Натан Лейн (Timon, озвучка), Эрни Сабелла (Pumbaa, озвучка), Джеймс Эрл Джонс (Mufasa, озвучка), Мойра Келли (! Nala, озвучка), Роуэн Эткинсон (Zazu, озвучка), Вупи Голдберг (Shenzi, озвучка), Чич Марин (Banzai, озвучка), Джонатан Тейлор Томас (Young Simba, озвучка), Никета Калам (Young Nala, озвучка), Роберт Гийом (Rafiki, озвучка)
Описание: У величественного Короля-Льва Муфасы рождается наследник по имени Симба. Уже в детстве любознательный малыш становится жертвой интриг своего завистливого дяди Шрама, мечтающего о власти.
Симба познаёт горе утраты, предательство и изгнание, но в конце концов обретает верных друзей и находит любимую. Закалённый испытаниями, он в нелёгкой борьбе отвоёвывает своё законное место в «Круге жизни», осознав, что значит быть настоящим Королём.
НА Тв Самсунг серии 7000 все говорит и показывает. Владельцам других моделей 3DТВ слегка сочувствую
Формат 3d: Anamorph SideBySide
Порядок ракурсов: Параллельная пара
Видео: : AVC at 9744 Кбит/сек Aspect : 1920 x 1080 (1.778) at 23.976 fps

Скриншоты

МедиаИнфо

Общее
Уникальный идентификатор : 189299267208187811863282907979117202153 (0x8E69B67499B40F2980744AA849638AE9)
Полное имя : D:\Король лев 3D (1).mkv
Формат : Matroska
Версия формата : Version 2
Размер файла : 7,69 Гбайт
Продолжительность : 1 ч. 28 м.
Общий поток : 12,4 Мбит/сек
Название фильма : The Lion King 3D - 3D4U
Дата кодирования : UTC 2011-08-29 14:58:48
Программа кодирования : mkvmerge v4.2.0 ('No Talking') сборка от Jul 28 2010 18:38:23
Библиотека кодирования : libebml v1.0.0 + libmatroska v1.0.0
Видео
Идентификатор : 3
Формат : AVC
Формат/Информация : Advanced Video Codec
Профиль формата : High@L4.1
Параметр CABAC формата : Да
Параметр ReFrames формата : 2 кадра
Режим смешивания : Header stripping
Идентификатор кодека : V_MPEG4/ISO/AVC
Продолжительность : 1 ч. 28 м.
Битрейт : 9744 Кбит/сек
Ширина : 1920 пикселей
Высота : 1080 пикселей
Соотношение сторон : 16:9
Частота кадров : 23,976 кадра/сек
Цветовое пространство : YUV
Субдискретизация насыщенности : 4:2:0
Битовая глубина : 8 бит
Тип развёртки : Прогрессивная
Бит/(Пиксели*Кадры) : 0.196
Размер потока : 6,05 Гбайт (79%)
Библиотека кодирования : x264 core
Язык : English
Основные цвета : BT.709-5, BT.1361, IEC 61966-2-4, SMPTE RP177
Характеристики трансфера : BT.709-5, BT.1361
Коэффициенты матрицы : BT.709-5, BT.1361, IEC 61966-2-4 709, SMPTE RP177
Аудио #1
Идентификатор : 1
Формат : AC-3
Формат/Информация : Audio Coding 3
Расширение режима : CM (complete main)
Режим смешивания : Header stripping
Идентификатор кодека : A_AC3
Продолжительность : 1 ч. 28 м.
Вид битрейта : Постоянный
Битрейт : 448 Кбит/сек
Каналы : 6 каналов
Расположение каналов : Front: L C R, Side: L R, LFE
Частота : 48,0 КГц
Битовая глубина : 16 бит
Метод сжатия : С потерями
Задержка видео : 20 с.
Размер потока : 285 Мбайт (4%)
Аудио #2
Идентификатор : 2
Формат : AC-3
Формат/Информация : Audio Coding 3
Расширение режима : CM (complete main)
Режим смешивания : Header stripping
Идентификатор кодека : A_AC3
Продолжительность : 1 ч. 28 м.
Вид битрейта : Постоянный
Битрейт : 448 Кбит/сек
Каналы : 6 каналов
Расположение каналов : Front: L C R, Side: L R, LFE
Частота : 48,0 КГц
Битовая глубина : 16 бит
Метод сжатия : С потерями
Задержка видео : 20 с.
Размер потока : 285 Мбайт (4%)
Аудио #3
Идентификатор : 4
Формат : DTS
Формат/Информация : Digital Theater Systems
Режим смешивания : Header stripping
Идентификатор кодека : A_DTS
Продолжительность : 1 ч. 28 м.
Вид битрейта : Постоянный
Битрейт : 1510 Кбит/сек
Каналы : 6 каналов
Расположение каналов : Front: L C R, Side: L R, LFE
Частота : 48,0 КГц
Битовая глубина : 24 бит
Метод сжатия : С потерями
Задержка видео : 11 мс.
Размер потока : 959 Мбайт (12%)
Язык : English
Благодарности релизеру (0)

Торрент:

Статус:

Размер:

Зарегистрирован   [ 2011-08-29 19:49 ]

x закрыто

7.69 GB

 
Комментарии:

1, 2, 3  След.






У меня как раз такой :). Спасибо за раздачу.
 

купил samsung- не прогадал! ))
 

Ребят, а что тут с песнями? Также дублированные?:(
 

Может сэмпл?
 

описание для кого?)
 

описание для кого?)
Сам -то описание читал ? Если нет , то специально для тебя :
 

ErikPRJ
Ребят, а что тут с песнями? Также дублированные?:(
описание для кого?)
Описание: НА Тв Самсунг серии 7000 все говорит и показывает. Владельцам других моделей 3DТВ слегка сочувствую... Вопрос всё тот же : песни здесь также дублированы ? Или снова смотреть описание ?
 

Dron и остальные - для кого это:

Перевод: А.Гаврилов
А.Кущак
Английский(оригинал)

вы идиоты, простите? вывели опять, нет сил... где здесь написано бубляж?
 

и да - смею предположить судя MI, что и на LG всё будет работать
Профиль формата : High@L4.1
 

На самсунге снова звук не идет...сможете исправить пожалуйста?
 

Samsung 6000. Звука нет! Облом!(((
 

ну значит epicfail
 

Отличие от вчерашней раздачи (http://torrents3d.ru/viewtopic.php?t=1814) только в количестве звуковых дорожек?
 

ну значит epicfail
Так epicfail ? Или все мы здесь,может и глупые,но,задающие вопросы,-идиоты?
Dron и остальные - вы идиоты, простите? вывели опять, нет сил...
Извините,конечно,но где же нам тогда вопросы задавать ?))
 

Аnатоliy052
А я всем сочувствую, кто на 3DТВ смотрит стереофильмы))) Лучше на проекторе)))
СПАСИБО))))
 

Во-во!А лучше владельцам тв еще и проектор купить!По сравнению с панелью он копейки стоит! :)))
 

2 Аnатоliy052
Ой напрасно ты, Толик, юзаешь Мердж-4.2.0 - опять заголовки сжаты! Поставь версию 3.4.0 - и не будет этих проблем! :)
 

Так epicfail ? Или все мы здесь,может и глупые,но,задающие вопросы,-идиоты?
вас интересовал дубляж, не ?
как вы лично связанны с создавшейся проблемой ?
и да, ты задающий глупые вопросы. до сих пор.
Извините,конечно,но где же нам тогда вопросы задавать ?))
дам совет, нужно внимательно читать)). все ваши проблемы на уровне вашей не внимательности.
 

Ребяты, подключите комп к телеку и не ебите башку себе и людям. Но у меня этот фильм с внешнего винта показывает. На всех трех языках. Видать мне в Калуге по пьяни какой то особенный Самсунг собрали.
 

Звук идёт без проблем на лж LW575.
 

Страница 1 из 3

1, 2, 3  След.