Торренты   
 
 


Красная Шапка против зла (дубл. FAB) / Hoodwinked Too! Hood VS. Evil (Майкл Д’Иса-Хоган) [2011 г., Anamorph SideBySide]

Рейтинг 3D:
Пока никто не голосовал
Рейтинг фильма:
Пока никто не голосовал
 
Вы должны быть авторизированы,
чтобы ставить оценки


Красная Шапка против зла (дубл. FAB) / Hoodwinked Too! Hood VS. Evil
Год выпуска: 2011
Страна: Weinstein Company, The, Kanbar Entertainment, HW Two (США)
Жанр: мультфильм, комедия
Продолжительность: 01:26:22
Перевод: Профессиональный (полное дублирование)
Режиссер: Майкл Д’Иса-Хоган
В ролях: Гленн Клоуз, Хайден Панеттьери, Чич Марин, Патрик Варбертон, Джоан Кьюсак, Билл Хэйдер, Дэвид Огден Стайерз, Эми Полер, Кори Эдвардс, Мартин Шорт
Роли дублировали: Нонна Гришаева, Людмила Гнилова, Александр Груздев, Ирина Савина, Александр Клюквин, Дарья Фролова, Леонид Белозорович, Евгений Вальц, Георгий Мартиросьян
Описание: Красная Шапка проходит курс подготовки в шпионской школе «Хитрый Дятел» и становится секретным агентом. Глава разведшколы сразу кидает Шапку в самое пекло. Ее миссия — расследовать загадочное исчезновение Гензель и Гретель. Возможно, Шапка так бы и провалила первое задание, но отважная Бабушка, Волк — папарацци и вся банда лесной братвы сотрут в порошок любого, кто встанет на пути любимой внученьки. Пусть это будет хоть само Зло!..
Доп. информация: Проверялся на ТВ Самсунг 7000. Применить "коррекцию изображения", т.е. поменять ракурсы.
Формат 3d: Anamorph SideBySide
Порядок ракурсов: Перекрёстная пара
Видео: AVC at 11,2 Мбит/сек Aspect : 1920 x 1080 (1.778) at 23.976 fps

Скриншоты




MI

General
Unique ID : 171491523220144313321328495617039709919 (0x810410E3EC3ABDFEB9A9FEA8B9F0B6DF)
Complete name : C:\Users\And&Pol\Documents\DVDFab\mkv\Красная Шапка против зла.3D\Красная Шапка против зла.3D.2011.SBS(FAB).mkv
Format : Matroska
File size : 4.77 GiB
Duration : 1h 26mn
Overall bit rate : 7 905 Kbps
Movie name : HOODWINKED_TOO_3D_BLUEBIRD.Title2.Bluray3DRip
Encoded date : UTC 2011-08-31 02:54:52
Writing application : DVDFab
Writing library : libebml v0.7.8 + libmatroska v0.8.1
Video
ID : 1
Format : AVC
Format/Info : Advanced Video Codec
Format profile : High@L5.1
Format settings, CABAC : Yes
Format settings, ReFrames : 2 frames
Codec ID : V_MPEG4/ISO/AVC
Duration : 1h 26mn
Bit rate mode : Variable
Bit rate : 7 299 Kbps
Maximum bit rate : 11.2 Mbps
Width : 1 920 pixels
Height : 1 080 pixels
Display aspect ratio : 16:9
Frame rate : 23.976 fps
Color space : YUV
Chroma subsampling : 4:2:0
Bit depth : 8 bits
Scan type : Progressive
Bits/(Pixel*Frame) : 0.147
Stream size : 4.40 GiB (92%)
Audio
ID : 2
Format : AC-3
Format/Info : Audio Coding 3
Mode extension : CM (complete main)
Codec ID : A_AC3
Duration : 1h 26mn
Bit rate mode : Constant
Bit rate : 448 Kbps
Channel(s) : 6 channels
Channel positions : Front: L C R, Side: L R, LFE
Sampling rate : 48.0 KHz
Bit depth : 16 bits
Compression mode : Lossy
Stream size : 277 MiB (6%)
Language : Russian
Menu
00:00:00.000 : en:(01)00:00:00:000
00:09:32.530 : en:(02)00:09:32:530
00:16:46.630 : en:(03)00:16:46:630
00:20:27.351 : en:(04)00:20:27:351
00:28:45.390 : en:(05)00:28:45:390
00:37:40.049 : en:(06)00:37:40:049
00:42:04.063 : en:(07)00:42:04:063
00:48:22.816 : en:(08)00:48:22:816
00:53:40.383 : en:(09)00:53:40:383
01:00:00.179 : en:(10)01:00:00:179
01:04:41.127 : en:(11)01:04:41:127
01:15:35.656 : en:(12)01:15:35:656
01:26:22.552 : en:(13)01:26:22:552
Благодарности релизеру (0)

Торрент:

Статус:

Размер:

Зарегистрирован   [ 2011-10-31 20:37 ]

проверено

4.77 GB