Торренты   
 
 


Пираты Карибского моря: На странных берегах / Pirates of the Caribbean: On Stranger Tides (Роб Маршалл / Rob Marshal) [2011 г., Anamorph OverUnder]

Рейтинг 3D:
96 голосов
6.7
Рейтинг фильма:
97 голосов
7.2
 
Вы должны быть авторизированы,
чтобы ставить оценки


«Live Forever or Die Trying...»

Название: Пираты Карибского моря: На странных берегах / Pirates of the Caribbean: On Stranger Tides
Год выпуска: 2011
Страна: США
Жанр: фэнтези, боевик, комедия, приключения
Продолжительность: 02:16:23
Перевод: Профессиональный (полное дублирование)
Русские субтитры: есть-Режиссер:
Роб Маршалл / Rob Marshall
В ролях:
Джонни Депп (Jack Sparrow), Пенелопа Крус (Angelica Malon), Джеффри Раш (Barbossa), Иэн МакШейн (Blackbeard), Кевин МакНэлли (Joshamee Gibbs), Стивен Грэм (Scrum), Сэм Клафлин (Philip), Астрид Берже-Фрисби (Syrena), Кит Ричардс (Captain Teague), Ричард Гриффитс (King George), Грег Эллис (Groves), Дэмиан О’Хейр (Gillette)-Описание:
В новой истории о поисках истины, предательстве, вечной молодости и смертельной опасности капитану Джеку Воробью предстоит столкнуться с женщиной из своего прошлого Анжеликой. До самого конца не будет понятно, связывает ли их настоящая любовь, или же Анжелика искусно притворяется, чтобы вместе с Джеком добраться до таинственного источника вечной молодости.
Она силой принуждает капитана Джека Воробья взойти на корабль «Месть Королевы Анны», которым управляет коварный злодей Черная Борода. Наш герой оказывается в ситуации, когда он не знает, чего ему бояться больше — ужасного злодея или же свою давнюю подругу.-Релиз группы:
-Качество: BDrip
Контейнер: MKV
Формат 3D: Anamorph OverUnder / Вертикальная анаморфная стереопара
Видео кодек: x264
Аудио кодек: AC3
Видео: x264, 1920x1080, 23.976 кадр/сек, 11 Мбит/сек
Аудио 1: русский; AC3, 6 каналов, 384 Кбит/сек, 48,0 КГц
Аудио 2: английский; AC3, 6 каналов, 384 Кбит/сек, 48,0 КГц
Cубтитры: Russian (forced), Russian (R5), Ukrainian (forced), Ukrainian (R5), English (.srt)

Знаете ли вы, что...

  • Дублершей Пенелопы Круc является ее родная сестра Моника Крус.
  • Джонни Депп согласился сниматься в фильме, когда еще даже не был написан сценарий.
  • Джонни Депп потратил более $60 000 на куртки для съемочной команды чтобы защитить их от холодной погоды.
  • Сюжет четвертого фильма переплетается с историей, рассказанной в книге Тима Пауэрса «На странных волнах».
  • Корабль Черной Бороды - «Месть королевы Анны» - «играет» тот же галеон, что раньше изображал «Черную жемчужину».
  • «Пираты Карибского моря: На странных берегах» станет первым фильмом франшизы, снятым по технологии Disney Digital 3D™, и первым фильмом полностью снятым на трехмерную камеру Red 3D (включая как интерьерные, так и натурные съемки).
  • Фильм «Пираты Карибского моря: На странных берегах» снимался на пяти разных островах: гавайских Кауаи и Оаху; Пуэрто Рико, Паломинито (небольшой остров недалеко от восточного побережья Пуэрто-Рико) и в далекой от тропического рая островной стране Великобритании.
  • В фильме присутствует реально существовавший персонаж — пират Чёрная Борода. В 2010 году археологи нашли саблю пирата с затонувшего флагманского корабля «Месть королевы Анны».

СКРИНШОТЫ

MI


Общее
Уникальный идентификатор : 195567558296224057453276059966757502978 (0x9320F1111C5A90AF8420B75024DD8002)
Полное имя : M:\3D-RuGroup\Pirates.of.the.Caribbean.On.Stranger.Tides.3D.2011.BD3DRip.Half.OU.x264.AC3.3D-RuGroup.mkv
Формат : Matroska
Размер файла : 11,4 Гбайт
Продолжительность : 2 ч. 16 м.
Общий поток : 12,0 Мбит/сек
Название фильма : Pirates.of.the.Caribbean:On.Stranger.Tides.3D.2011.BD3DRip.Half.OU.x264.AC3.3D-RuGroup
Дата кодирования : UTC 2011-09-01 17:26:08
Программа кодирования : mkvmerge v3.4.0 ('Rapunzel') сборка от May 15 2010 09:38:20
Библиотека кодирования : libebml v0.8.0 + libmatroska v0.9.0
Видео
Идентификатор : 1
Формат : AVC
Формат/Информация : Advanced Video Codec
Профиль формата : High@L4.0
Параметр CABAC формата : Да
Параметр ReFrames формата : 4 кадра
Идентификатор кодека : V_MPEG4/ISO/AVC
Продолжительность : 2 ч. 16 м.
Битрейт : 11,0 Мбит/сек
Ширина : 1920 пикс.
Высота : 1080 пикс.
Соотношение сторон : 16:9
Частота кадров : 23,976 кадр/сек
Цветовое пространство : YUV
Подвыборка цветности : 4:2:0
Битовая глубина : 8 бит
Тип развёртки : Прогрессивная
Бит/(Пиксели*Кадры) : 0.221
Размер потока : 10,5 Гбайт (92%)
Заголовок : Pirates of the Caribbean: On Stranger Tides by 3D-RuGroup
Библиотека кодирования : x264 core 115 r1947 b5a8ad7
Настройки программы : cabac=1 / ref=4 / deblock=1:-3:-3 / analyse=0x3:0x133 / me=umh / subme=10 / psy=1 / psy_rd=1.05:0.15 / mixed_ref=1 / me_range=32 / chroma_me=1 / trellis=2 / 8x8dct=1 / cqm=0 / deadzone=21,11 / fast_pskip=0 / chroma_qp_offset=-3 / threads=3 / sliced_threads=0 / nr=0 / decimate=1 / interlaced=0 / bluray_compat=0 / constrained_intra=0 / bframes=8 / b_pyramid=2 / b_adapt=2 / b_bias=0 / direct=3 / weightb=1 / open_gop=0 / weightp=2 / keyint=250 / keyint_min=23 / scenecut=40 / intra_refresh=0 / rc_lookahead=60 / rc=crf / mbtree=1 / crf=18.0 / qcomp=0.70 / qpmin=10 / qpmax=69 / qpstep=4 / ip_ratio=1.40 / aq=1:0.90
Язык : English
Аудио #1
Идентификатор : 2
Формат : AC-3
Формат/Информация : Audio Coding 3
Расширение режима : CM (complete main)
Идентификатор кодека : A_AC3
Продолжительность : 2 ч. 16 м.
Вид битрейта : Постоянный
Битрейт : 384 Кбит/сек
Каналы : 6 каналов
Расположение каналов : Front: L C R, Side: L R, LFE
Частота : 48,0 КГц
Битовая глубина : 16 бит
Метод сжатия : С потерями
Размер потока : 375 Мбайт (3%)
Заголовок : Dub
Язык : Russian
Аудио #2
Идентификатор : 3
Формат : AC-3
Формат/Информация : Audio Coding 3
Расширение режима : CM (complete main)
Идентификатор кодека : A_AC3
Продолжительность : 2 ч. 16 м.
Вид битрейта : Постоянный
Битрейт : 384 Кбит/сек
Каналы : 6 каналов
Расположение каналов : Front: L C R, Side: L R, LFE
Частота : 48,0 КГц
Битовая глубина : 16 бит
Метод сжатия : С потерями
Размер потока : 375 Мбайт (3%)
Заголовок : Original
Язык : English
Текст #1
Идентификатор : 4
Формат : UTF-8
Идентификатор кодека : S_TEXT/UTF8
Идентификатор кодека/Информация : UTF-8 Plain Text
Заголовок : forced
Язык : Russian
Текст #2
Идентификатор : 5
Формат : UTF-8
Идентификатор кодека : S_TEXT/UTF8
Идентификатор кодека/Информация : UTF-8 Plain Text
Заголовок : R5
Язык : Russian
Текст #3
Идентификатор : 6
Формат : UTF-8
Идентификатор кодека : S_TEXT/UTF8
Идентификатор кодека/Информация : UTF-8 Plain Text
Заголовок : forced
Язык : Ukrainian
Текст #4
Идентификатор : 7
Формат : UTF-8
Идентификатор кодека : S_TEXT/UTF8
Идентификатор кодека/Информация : UTF-8 Plain Text
Заголовок : R5
Язык : Ukrainian
Текст #5
Идентификатор : 8
Формат : UTF-8
Идентификатор кодека : S_TEXT/UTF8
Идентификатор кодека/Информация : UTF-8 Plain Text
Заголовок : english
Язык : English
Меню
00:00:00.000 : :An Unorthodox Catch / Opening Credits
00:03:34.172 : :On Trial
00:08:46.776 : :Royal Visit
00:15:56.080 : :Escape
00:18:34.155 : :The Captain's Daughter
00:21:15.316 : :Stolen Identity
00:30:05.512 : :The Queen Anne
00:36:56.756 : :Mutiny Most Foul
00:42:05.356 : :A Bad Man
00:48:20.022 : :The Prophesy
00:53:26.078 : :Thick As Thieves
00:55:42.965 : :The Truth
00:57:52.844 : :Whitecap Bay
01:00:47.477 : :God Save Me
01:08:22.223 : :A Proper Mermaid
01:11:41.339 : :Through The Jungle
01:13:03.170 : :Whatever Is Necessary
01:14:16.744 : :A Sudden Urge To Jump
01:23:19.995 : :No, You
01:26:49.621 : :Jungle Pools
01:30:16.494 : :Stirrings
01:35:43.738 : :An Improvised Escape
01:40:57.927 : :A Trade For The Compass
01:43:07.556 : :A Dramatic Entrance
01:44:51.660 : :Aqua De Vida
01:48:53.610 : :One Last Fight
01:57:41.471 : :Do Not Waste My Tear
02:02:21.376 : :Choosing The Dog
02:05:51.461 : :For The Pearl
02:07:26.806 : :Credits
Остальные раздачи этого фильма (7)
Благодарности релизеру (40)

Торрент:

Статус:

Размер:

Зарегистрирован   [ 2011-09-01 22:42 ]

проверено

11.43 GB

 
 Мнение о фильме (20)





Elechka0920
вылета маловато в фильме да, но глубина изображения на уровне
 

Фильм РЕКОМЕНДУЮ класно снят!!!
 

Благодарю за труд! Фильм великолепный!
 

А никому еще, кроме меня, не показалось, что рука скелета в конце фильма должна была прямо перед носом остановиться? Почему 3D такое не качественное везде? Специально ослабляют эффекты, чтобы народ не сильно нервничал? И как можно усилить эти эффекты?
 

Класс!
 

Посмотреть не удалось. Сам виноват-не прочитал Ваше предупреждение о ТВ -плейерах
 

Детям понравилось. А сама еще не смотрела
 

То, что и ожидал
 

Спасибо,хотя и многие ходы фильма предсказуемы - держит в напряжении.Посмотреть стоит
 

Спасибо за раздачу! Нормальный фильм, нормальное 3Д
 

Фильм класс, пересматривал уже раза 3 наверно все части. вот теперь и в 3D.
3D вполне нормальное, глубина есть, вылетов конечно маловато 2-3 раза примерно, с рукой конечно могли и побольше сделать вылет.
 

В кинотеатре больше всего запомнился момент с русалками. Они выплывали как бы из-за ушей.
А вот дома несколько раз это место пересматривал меняя настройки - нету такого эффекта. Печаль.
 

Спасибо за фильм релизёру. Качество отменное, тем более на весь экран... - смотреть одно удовольствие!!!
 

скажите,люди-есть ли разница в весе фильма?больше гигов-лучше эффект???
 

НЕТ
 

А есть предыдущие части в 3Д?
 

Фильм РЕКОМЕНДУЮ классно снят!!!
 

дайте раздачу пожалуйста
 

Скорость просто завораживает,думаю через недельку фильм посмотрю
 

фильм из закачки был торжественно удален