Торренты   
 
 


Тор / Thor (Кеннет Брэна / Kenneth Branagh, Джосс Уидон / Joss Whedon) [2011 г., Anamorph SideBySide]

Рейтинг 3D:
Пока никто не голосовал
Рейтинг фильма:
Пока никто не голосовал
 
Вы должны быть авторизированы,
чтобы ставить оценки


Тор / Thor
Год выпуска: 2011
Страна: США
Жанр: фэнтези, боевик, приключения
Продолжительность: 01:54:50
Перевод: Любительский (одноголосый) Zamez
Режиссер: Кеннет Брэна / Kenneth Branagh, Джосс Уидон / Joss Whedon
В ролях: Крис Хемсворт / Chris Hemsworth, Натали Портман / Natalie Portman, Энтони Хопкинс / Anthony Hopkins, Том Хиддлстон / Tom Hiddleston, Стеллан Скарсгард / Stellan Skarsgård, Кэт Деннингс / Kat Dennings, Кларк Грегг / Clark Gregg, Идрис Эльба / Idris Elba, Колм Фиор / Colm Feore, Рэй Стивенсон / Ray Stevenson
Описание: Эпическое приключение происходит как на нашей планете Земля, так и в вымышленном королевстве богов Асгарде. В центре истории - Могучий Тор, сильный, но высокомерный воин, чьи безрассудные поступки возрождают древнюю войну в Асгарде. Тора отправляют в ссылку на Землю, лишают сил и заставляют жить среди обычных людей в качестве наказания.
Формат 3d: Anamorph SideBySide
Порядок ракурсов: Параллельная пара

Скриншоты

МедиаИнфо

Общее
Уникальный идентификатор : 239819132773818597859377320132213228484 (0xB46B7C22B557248ABB6C42D810D843C4)
Полное имя : D:\Thor.3D.mkv
Формат : Matroska
Версия формата : Version 1
Размер файла : 9,49 Гбайт
Продолжительность : 1 ч. 57 м.
Общий поток : 11,6 Мбит/сек
Название фильма : THOR_AC.Title799.Bluray3DRip
Дата кодирования : UTC 2011-09-02 03:18:29
Программа кодирования : mkvmerge v2.2.0 ('Turn It On Again') built on Mar 4 2008 13:20:25
Библиотека кодирования : libebml v0.7.7 + libmatroska v0.8.1
Видео
Идентификатор : 2
Формат : AVC
Формат/Информация : Advanced Video Codec
Профиль формата : High@L4.1
Параметр CABAC формата : Да
Параметр ReFrames формата : 2 кадра
Идентификатор кодека : V_MPEG4/ISO/AVC
Продолжительность : 1 ч. 57 м.
Битрейт : 9422 Кбит/сек
Ширина : 1920 пикселей
Высота : 1080 пикселей
Соотношение сторон : 16:9
Частота кадров : 23,976 кадра/сек
Цветовое пространство : YUV
Субдискретизация насыщенности : 4:2:0
Битовая глубина : 8 бит
Тип развёртки : Прогрессивная
Бит/(Пиксели*Кадры) : 0.190
Размер потока : 7,70 Гбайт (81%)
Библиотека кодирования : x264 core
Основные цвета : BT.709-5, BT.1361, IEC 61966-2-4, SMPTE RP177
Характеристики трансфера : BT.709-5, BT.1361
Коэффициенты матрицы : BT.709-5, BT.1361, IEC 61966-2-4 709, SMPTE RP177
Аудио #1
Идентификатор : 1
Формат : AC-3
Формат/Информация : Audio Coding 3
Расширение режима : CM (complete main)
Идентификатор кодека : A_AC3
Продолжительность : 1 ч. 57 м.
Вид битрейта : Постоянный
Битрейт : 448 Кбит/сек
Каналы : 6 каналов
Расположение каналов : Front: L C R, Side: L R, LFE
Частота : 48,0 КГц
Битовая глубина : 16 бит
Метод сжатия : С потерями
Размер потока : 375 Мбайт (4%)
Язык : Русский
Аудио #2
Идентификатор : 3
Формат : DTS
Формат/Информация : Digital Theater Systems
Профиль формата : ES
Идентификатор кодека : A_DTS
Продолжительность : 1 ч. 57 м.
Вид битрейта : Постоянный
Битрейт : 1510 Кбит/сек
Каналы : 6 каналов
Расположение каналов : Front: L C R, Side: L R, LFE
Частота : 48,0 КГц
Битовая глубина : 24 бит
Метод сжатия : С потерями
Размер потока : 1,23 Гбайт (13%)
Язык : English
Меню
00:00:00.000 : en:(01)00:00:00:000
00:10:38.137 : en:(02)00:10:38:137
00:17:33.135 : en:(03)00:17:33:135
00:26:02.602 : en:(04)00:26:02:602
00:32:28.196 : en:(05)00:32:28:196
00:37:28.412 : en:(06)00:37:28:412
00:42:14.198 : en:(07)00:42:14:198
00:52:10.377 : en:(08)00:52:10:377
01:01:24.972 : en:(09)01:01:24:972
01:08:45.538 : en:(10)01:08:45:538
01:15:39.159 : en:(11)01:15:39:159
01:21:19.249 : en:(12)01:21:19:249
01:30:35.346 : en:(13)01:30:35:346
01:40:58.177 : en:(14)01:40:58:177
01:45:13.724 : en:(15)01:45:13:724
01:53:06.196 : en:(16)01:53:06:196
01:54:50.425 : en:(17)01:54:50:425
Благодарности релизеру (0)

Торрент:

Статус:

Размер:

Зарегистрирован   [ 2011-09-02 08:04 ]

x закрыто

9.49 GB

 
Комментарии:

Пред.  1, 2






r57shell
Ну вроде как последние минуты не кодируются... или уже нет?)
 

да, не кодируется в конце...
 

супер! спасибо за релиз!
з.ы. СМОТРЕТЬ ДО КОНЦА. ну,перемотайте титры
 

Анатолий! Респект и Уважуха!!! Спасибо!!
 

з.ы. СМОТРЕТЬ ДО КОНЦА. ну,перемотайте титры
так же как и в пиратах
 

кто уже посморел
как 3д ?
 

само качество рипа походу на минимальных настройках фаба(( качество как-будто дивидишное. смотреть можно, но не ’’возбуждает’’. Подозреваю у Саши в разы рип лучше получится
 

r57shell
Ну вроде как последние минуты не кодируются... или уже нет?)
1) я так то спрашивал какой образ.
2) я во всех рипах от себя, кодировал все кадры, от начала до конца. Я не отношусь к тем у кого последние кадры не кодируются.
 

r57shell
разговор был про образ Зена
 

залью, посмотрю :))))
 

само качество рипа походу на минимальных настройках фаба(( качество как-будто дивидишное. смотреть можно, но не ’’возбуждает’’. Подозреваю у Саши в разы рип лучше получится
Если исходник гамно-- то не факт.....
 

Поглощено - http://torrents3d.ru/viewtopic.php?t=1856. Закрыто.
 

Топик был перенесен из форума Фильмы HD в форум Архив

KinoKRITIK
 

Страница 2 из 2

Пред.  1, 2