Торренты   
 
 


Пираты Карибского моря: На странных берегах 3D / Pirates of the Caribbean: On Stranger Tides 3D (Роб Маршалл) [2011 г., 720p, OverUnder]

Рейтинг 3D:
96 голосов
6.7
Рейтинг фильма:
97 голосов
7.2
 
Вы должны быть авторизированы,
чтобы ставить оценки


Пираты Карибского моря: На странных берегах 3D / Pirates of the Caribbean: On Stranger Tides 3D
Год выпуска: 2011
Страна: США
Жанр: фэнтези, боевик, приключения
Продолжительность: 02:16:23
Перевод: Профессиональный (полное дублирование)
Режиссер: Роб Маршалл
В ролях: Джонни Депп, Пенелопа Крус, Джеффри Раш, Иэн МакШейн, Кевин МакНэлли, Стивен Грэм, Сэм Клафлин, Астрид Берже-Фрисби, Кит Ричардс, Ричард Гриффитс
Описание: В новой истории о поисках истины, предательстве, вечной молодости и смертельной опасности капитану Джеку Воробью предстоит столкнуться с женщиной из своего прошлого Анжеликой. До самого конца не будет понятно, связывает ли их настоящая любовь, или же Анжелика искусно притворяется, чтобы вместе с Джеком добраться до таинственного источника вечной молодости.
Формат 3d: OverUnder
Video: MPEG4 Video (H264) 1280x1088 23.98fps
Audio: Dolby AC3 48000Hz 6ch

MediaInfo

General
Format : Matroska
File size : 8.96 GiB
Duration : 2h 16mn
Overall bit rate : 9 408 Kbps
Encoded date : UTC 2011-09-02 11:05:02
Writing application : mkvmerge v4.4.0 ('Die Wiederkehr') сборка от Oct 31 2010 21:52:48
Writing library : libebml v1.0.0 + libmatroska v1.0.0
Video
ID : 1
Format : AVC
Format/Info : Advanced Video Codec
Format profile : High@L4.0
Format settings, CABAC : Yes
Format settings, ReFrames : 4 frames
Codec ID : V_MPEG4/ISO/AVC
Duration : 2h 16mn
Bit rate : 8 836 Kbps
Width : 1 280 pixels
Height : 1 088 pixels
Display aspect ratio : 1.176
Frame rate : 23.976 fps
Color space : YUV
Chroma subsampling : 4:2:0
Bit depth : 8 bits
Scan type : Progressive
Bits/(Pixel*Frame) : 0.265
Stream size : 8.42 GiB (94%)
Writing library : x264 core 115 r1995 c1e60b9
Encoding settings : cabac=1 / ref=4 / deblock=1:-2:-2 / analyse=0x3:0x113 / me=umh / subme=9 / psy=1 / psy_rd=1.00:0.15 / mixed_ref=1 / me_range=16 / chroma_me=1 / trellis=2 / 8x8dct=1 / cqm=0 / deadzone=21,11 / fast_pskip=1 / chroma_qp_offset=-3 / threads=6 / sliced_threads=0 / nr=0 / decimate=1 / interlaced=0 / bluray_compat=0 / constrained_intra=0 / bframes=6 / b_pyramid=0 / b_adapt=2 / b_bias=0 / direct=3 / weightb=1 / open_gop=0 / weightp=2 / keyint=250 / keyint_min=23 / scenecut=40 / intra_refresh=0 / rc_lookahead=40 / rc=crf / mbtree=1 / crf=18.0 / qcomp=0.60 / qpmin=10 / qpmax=69 / qpstep=4 / ip_ratio=1.40 / aq=1:1.00
Audio
ID : 2
Format : AC-3
Format/Info : Audio Coding 3
Mode extension : CM (complete main)
Codec ID : A_AC3
Duration : 2h 16mn
Bit rate mode : Constant
Bit rate : 384 Kbps
Channel(s) : 6 channels
Channel positions : Front: L C R, Side: L R, LFE
Sampling rate : 48.0 KHz
Bit depth : 16 bits
Compression mode : Lossy
Stream size : 375 MiB (4%)
Language : Russian

Скриншоты

Остальные раздачи этого фильма (7)
Благодарности релизеру (24)

Торрент:

Статус:

Размер:

Зарегистрирован   [ 2011-09-02 15:59 ]

проверено

8.96 GB