Торренты   
 
 


Гномео и Джульетта 3Д / Gnomeo and Juliet 3D (Келли Эсбёри / Kelly Asbury) [2011, мультфильм, фэнтези, мелодрама, комедия, BDrip-avc] DUB (Лицензия) VO (Zamez) + original eng Anamorph OverUnder / Вертикальная анаморфная стереопара

Рейтинг 3D:
Пока никто не голосовал
Рейтинг фильма:
Пока никто не голосовал
 
Вы должны быть авторизированы,
чтобы ставить оценки


Гномео и Джульетта 3D / Gnomeo and Juliet 3D
Год выпуска: 2011
Страна: США, Великобритания
Жанр: мультфильм, фэнтези, мелодрама, комедия
Продолжительность: 01:23:50
Перевод: Профессиональный (полное дублирование)Лицензия + Одноголосый закадровый (Вячеслав Замез)
Режиссер: Келли Эсбёри / Kelly Asbury
В ролях: Режиссер: Келли Эсбёри / Kelly Asbury
Роли озвучивали: Джеймс МакЭвой, Эмили Блант, Эшли Дженсен, Майкл Кейн, Мэтт Лукас, Джим Каммингс, Мэгги Смит, Джейсон Стэтхэм, Оззи Осборн, Стефен Мерчант, Джули Уолтерс, Халк Хоган.
Роли дублировали: Прохор Чеховской, Лина Иванова, Ирина Савина, Борис Клюев, Александр Незлобин, Тимур Родригез, Светлана Харлап, Владимир Зайцев, Александр Ревва, Сергей Бурунов, Людмила Гнилова, Вячеслав Баранов.
Описание: Интерпретация пьесы Уильяма Шекспира, в которой противоборствуют семьи садовых гномов и гномов домашних.
Доп. информация: источник : RUTRACKER.ORG
:http://rutracker.org/forum/viewtopic.php?t=3578866
Формат 3d: Anamorph OverUnder / Вертикальная анаморфная стереопара
Видео: AVC / 1920х1080p / 23,976 fps / 5 822 Kbps
Аудио1: 48 kHz, AC3 Dolby Digital, 3/2 (L,C,R,l,r) + LFE ch, ~384.00 kbps avg (DUB)
Аудио2: 48 kHz, AC3 Dolby Digital, 3/2 (L,C,R,l,r) + LFE ch, ~384.00 kbps avg (Zamez)
Аудио3:48 kHz, AC3 Dolby Digital, 3/2 (L,C,R,l,r) + LFE ch, ~640.00 kbps avg (ENG)
Русские субтитры: нет
Оригинальная аудио дорожка: английский

MI

[[General
Unique ID : 251146966636707799866826033216718807678 (0xBCF125771CDAC337BAD93F091FDAA27E)
Complete name : Gnomeo&Juliet.3D.2011.BD3DRip.Half.OU.x264.AC3.3D-RuGroup.mkv
Format : Matroska
File size : 4.32 GiB
Duration : 1h 23mn
Overall bit rate : 7 377 Kbps
Encoded date : UTC 2011-05-26 19:09:07
Writing application : mkvmerge v3.4.0 ('Rapunzel') сборка от May 15 2010 09:38:20
Writing library : libebml v0.8.0 + libmatroska v0.9.0
Video
ID : 1
Format : AVC
Format/Info : Advanced Video Codec
Format profile : High@L4.1
Format settings, CABAC : Yes
Format settings, ReFrames : 4 frames
Codec ID : V_MPEG4/ISO/AVC
Duration : 1h 23mn
Bit rate : 5 822 Kbps
Width : 1 920 pixels
Height : 1 080 pixels
Display aspect ratio : 0.889
Original display aspect ratio : 16:9
Frame rate : 23.976 fps
Color space : YUV
Chroma subsampling : 4:2:0
Bit depth : 8 bits
Scan type : Progressive
Bits/(Pixel*Frame) : 0.117
Stream size : 3.41 GiB (79%)
Title : Rip by Ash61
Writing library : x264 core 113 r1884 7313bb5
Encoding settings : cabac=1 / ref=4 / deblock=1:-1:-1 / analyse=0x3:0x113 / me=umh / subme=9 / psy=1 / psy_rd=1.00:0.15 / mixed_ref=1 / me_range=16 / chroma_me=1 / trellis=2 / 8x8dct=1 / cqm=0 / deadzone=21,11 / fast_pskip=1 / chroma_qp_offset=-3 / threads=3 / sliced_threads=0 / nr=0 / decimate=1 / interlaced=0 / constrained_intra=0 / bframes=4 / b_pyramid=2 / b_adapt=2 / b_bias=0 / direct=3 / weightb=1 / open_gop=0 / weightp=2 / keyint=250 / keyint_min=23 / scenecut=40 / intra_refresh=0 / rc_lookahead=40 / rc=crf / mbtree=1 / crf=18.0 / qcomp=0.60 / qpmin=0 / qpmax=69 / qpstep=4 / ip_ratio=1.40 / aq=1:1.00
Audio #1
ID : 2
Format : AC-3
Format/Info : Audio Coding 3
Mode extension : CM (complete main)
Codec ID : A_AC3
Duration : 1h 23mn
Bit rate mode : Constant
Bit rate : 384 Kbps
Channel(s) : 6 channels
Channel positions : Front: L C R, Side: L R, LFE
Sampling rate : 48.0 KHz
Bit depth : 16 bits
Compression mode : Lossy
Stream size : 230 MiB (5%)
Title : Лицензионный
Language : Russian
Audio #2
ID : 3
Format : AC-3
Format/Info : Audio Coding 3
Mode extension : CM (complete main)
Codec ID : A_AC3
Duration : 1h 23mn
Bit rate mode : Constant
Bit rate : 384 Kbps
Channel(s) : 6 channels
Channel positions : Front: L C R, Side: L R, LFE
Sampling rate : 48.0 KHz
Bit depth : 16 bits
Compression mode : Lossy
Stream size : 230 MiB (5%)
Title : AVO Zamez
Language : Russian
Audio #3
ID : 4
Format : AC-3
Format/Info : Audio Coding 3
Mode extension : CM (complete main)
Codec ID : A_AC3
Duration : 1h 23mn
Bit rate mode : Constant
Bit rate : 640 Kbps
Channel(s) : 6 channels
Channel positions : Front: L C R, Side: L R, LFE
Sampling rate : 48.0 KHz
Bit depth : 16 bits
Compression mode : Lossy
Stream size : 384 MiB (9%)
Title : Original
Language : English
Menu
00:00:00.000 : en: 01
00:09:45.001 : en: 02
00:16:46.672 : en: 03
00:21:28.370 : en: 04
00:29:00.280 : en: 05
00:35:19.326 : en: 06
00:41:18.393 : en: 07
00:50:42.623 : en: 08
00:58:31.174 : en: 09
01:05:51.531 : en: 10
01:11:14.312 : en: 11
01:17:09.291 : en: 12]

Скриншоты




Благодарности релизеру (7)

Торрент:

Статус:

Размер:

Зарегистрирован   [ 2011-09-04 20:05 ]

проверено

4.32 GB