Торренты   
 
 


Гаро: Кровавый реквием 3D/ Garo Red Requiem 3D (Кэйта Амэмия) [2010 г., Anamorph SideBySide]

Рейтинг 3D:
Пока никто не голосовал
Рейтинг фильма:
1 голосов
1.0
 
Вы должны быть авторизированы,
чтобы ставить оценки


Гаро: Кровавый реквием 3D / Garo Red Requiem 3D
Год выпуска: 2010
Страна: Япония
Жанр: фэнтези, боевик
Продолжительность: 01:36:33
Перевод: Отсутствует
Субтитры: Английские
Режиссер: Кэйта Амэмия
Описание: Когда в наш мир проникло великое Зло, несущее с собой хаос и разрушения, великий воин в золотых доспехах оказался единственным, кто может победить древнее чудовище и вернуть всё на круги своя.
Формат 3d: Anamorph SideBySide
Порядок ракурсов: Параллельная пара

Скриншоты

MediaInfo

General
Format : Matroska
File size : 11.0 GiB
Duration : 1h 36mn
Overall bit rate : 16.3 Mbps
Movie name : GARO TSMUXER.Title0.BlurayRip
Encoded date : UTC 2011-08-26 21:45:33
Writing application : mkvmerge v4.0.0 ('The Stars were mine') built on Jun 6 2010 16:18:42
Writing library : libebml v1.0.0 + libmatroska v1.0.0
Video
ID : 1
Format : AVC
Format/Info : Advanced Video Codec
Format profile : High@L4.1
Format settings, CABAC : Yes
Format settings, ReFrames : 2 frames
Format settings, GOP : M=3, N=24
Codec ID : V_MPEG4/ISO/AVC
Duration : 1h 36mn
Bit rate mode : Variable
Bit rate : 14.5 Mbps
Maximum bit rate : 30.0 Mbps
Width : 1 920 pixels
Height : 1 080 pixels
Display aspect ratio : 16:9
Frame rate : 23.976 fps
Color space : YUV
Chroma subsampling : 4:2:0
Bit depth : 8 bits
Scan type : Progressive
Bits/(Pixel*Frame) : 0.291
Stream size : 9.76 GiB (89%)
Writing library : x264 core
Color primaries : BT.709-5, BT.1361, IEC 61966-2-4, SMPTE RP177
Transfer characteristics : BT.709-5, BT.1361
Matrix coefficients : BT.709-5, BT.1361, IEC 61966-2-4 709, SMPTE RP177
Audio
ID : 2
Format : DTS
Format/Info : Digital Theater Systems
Codec ID : A_DTS
Duration : 1h 36mn
Bit rate mode : Constant
Bit rate : 1 510 Kbps
Channel(s) : 6 channels
Channel positions : Front: L C R, Side: L R, LFE
Sampling rate : 48.0 KHz
Bit depth : 16 bits
Compression mode : Lossy
Stream size : 1.02 GiB (9%)
Language : Japanese
Благодарности релизеру (4)

Торрент:

Статус:

Размер:

Зарегистрирован   [ 2011-09-04 21:51 ]

* не проверено

11 GB