Торренты   
 
 

 

На глубине морской 3Д / Under the Sea 3D (Говард Холл / Howard Hall) [2009, Документальный, видовой, HDRip] IMAX Анаглиф / Anaglyph

Рейтинг 3D:
1 голосов
7.0
Рейтинг фильма:
1 голосов
5.0
 
Вы должны быть авторизированы,
чтобы ставить оценки


IMAX. На глубине морской 3D / IMAX. Under the Sea 3D
Год выпуска: 2009
Страна: США, Канада
Жанр: Документальный, видовой
Продолжительность: 00:40:49
Перевод: Профессиональный (одноголосый закадровый)
Режиссер: Говард Холл
Описание: "Ничто не сравнится с изображениями в этом фильме. Режиссер Говард Холл умеет обращаться с подводной камерой, всеми ее 1300 фунтами [600кг], и лично провел под водой 358 часов из общих 2073 часов, проведенных съемочной группой (в целом, 1668 погружений, многие с использованием дыхательного аппарата замкнутого цикла, что позволяет погружаться на гораздо более длительное время, чем обычный акваланг).
Изображения впечатляют, и включают в себя снимки танцующих каракатиц, жалящего ската, окруженного рыбами, ждущими, пока его 6-футовые [180см] крылья схватят крошечную закуску с морского дна, карликовых полосатиков, камерных наутилусов [русск. название: наутилус помпилиус] (один из немногих оставшихся видов наутилусов, которых когда-то насчитывалось около 2000), несколько больших белых акул, морских змей, и колонии угрей, напоминающих стебли пшеницы под дуновением ветра, а также блистательные засады замаскированных маленьких обитателей рифов. Уровень музыкального сопровождения в фильме несколько выше того, что мы обычно наблюдаем в IMAX фильмах.
Фильм снимался в Индонезийских водах Кораллового треугольника, а также в прибрежных мангровых лесах, Большом Барьерном рифе, и южном побережье Австралии. При этом постоянно присутствует утверждение "океаны в опасности", которое кажется несколько навязчивым в фильме, который длится только 40 минут.
Следует информировать об опасности грозящей окружающей среде, но есть разница между информированием и вдалбливанием. В данном случае это более похоже на вдалбливание, так как определяя проблему, фильм не предлагает ее решения. В конце концов, такой фильм не станут смотреть ни загрязнители, ни бурильщики, так что большинство его зрителей, вероятно, уже заботятся об экологии. Понравится ли им нечто в стиле 'Soylent Green' ['Зеленый сойлент']?"
Доп. информация: Стандартное разрешение для совместимости с DivX плеерами, медленными процессорами и/или графическими картами.
Для просмотра в HD рекомендуется стереопара.
источник : RUTRACKER.ORG:http://rutracker.org/forum/viewtopic.php?t=3520387
Формат 3d: Anaglyph
Цвета очков:

Качество: HDRip
Контейнер: AVI
Видео: XviD, 720x480(16:9), ~3600Kbps, 23.976fps(NTSC)
Аудио 1:48KHz, 448Kbps, AC3, 16bits, 6ch, русский перевод (закадровый)
Аудио 2:48KHz, 448Kbps, AC3, 16bita, 6ch, оригинальная (английский)

MI

[General
Complete name : E:\Downloads\Torrent\Under the Sea 3D DvdRip\IMAX.Under.the.Sea.3d.720x480.AnaglyphRC.3600.avi
Format : AVI
Format/Info : Audio Video Interleave
File size : 1.28 GiB
Duration : 40mn 51s
Overall bit rate : 4 500 Kbps
Movie name : IMAX Under the Sea 3D Russian (Dubbed) + English
Director : Howard Hall
Encoded by : pcyanide (AUS)
Genre : Documentary
Original source form : Digital Video
Original source form/Name : Home Video
Copyright : Warner Bros & IMAX
Video
ID : 0
Format : MPEG-4 Visual
Format profile : Advanced Simple@L5
Format settings, BVOP : Yes
Format settings, QPel : No
Format settings, GMC : No warppoints
Format settings, Matrix : Default (H.263)
Codec ID : XVID
Codec ID/Hint : XviD
Duration : 40mn 49s
Bit rate : 3 594 Kbps
Width : 720 pixels
Height : 480 pixels
Display aspect ratio : 16:9
Frame rate : 23.976 fps
Standard : NTSC
Color space : YUV
Chroma subsampling : 4:2:0
Bit depth : 8 bits
Scan type : Progressive
Bits/(Pixel*Frame) : 0.434
Stream size : 1.02 GiB (80%)
Writing library : XviD 1.2.1 (UTC 2008-12-04)
Audio #1
ID : 1
Format : AC-3
Format/Info : Audio Coding 3
Mode extension : CM (complete main)
Codec ID : 2000
Duration : 40mn 51s
Bit rate mode : Constant
Bit rate : 448 Kbps
Channel(s) : 6 channels
Channel positions : Front: L C R, Side: L R, LFE
Sampling rate : 48.0 KHz
Bit depth : 16 bits
Stream size : 131 MiB (10%)
Alignment : Aligned on interleaves
Interleave, duration : 42 ms (1.00 video frame)
Language : Russian
Audio #2
ID : 2
Format : AC-3
Format/Info : Audio Coding 3
Mode extension : CM (complete main)
Codec ID : 2000
Duration : 40mn 51s
Bit rate mode : Constant
Bit rate : 448 Kbps
Channel(s) : 6 channels
Channel positions : Front: L C R, Side: L R, LFE
Sampling rate : 48.0 KHz
Bit depth : 16 bits
Stream size : 131 MiB (10%)
Alignment : Aligned on interleaves
Interleave, duration : 42 ms (1.00 video frame)]

Скриншоты




Благодарности релизеру (1)

Торрент:

Статус:

Размер:

Зарегистрирован   [ 2011-09-06 00:34 ]

* не проверено

1.28 GB