Торренты   
 
 


Тор / Thor [2011 г, 1080p, BDrip, Anamorph OverUnder]

Рейтинг 3D:
61 голосов
6.8
Рейтинг фильма:
62 голосов
7.6
 
Вы должны быть авторизированы,
чтобы ставить оценки


-Тор / Thor Год выпуска: 2011
Страна: США (Paramount Pictures, Marvel Studios)
Жанр: Фэнтези, Боевик, Приключения
Продолжительность: 01:54:49
Перевод: Профессиональный (полное дублирование)
Режиссер: Кеннет Брэна, Джосс Уидон / Kenneth Branagh, Joss Whedon-Роли исполняли (дублировали): Тор - Крис Хемсворт (Иван Жарков)
Джейн Фостер - Натали Портман (Татьяна Шитова)
Один - Энтони Хопкинс (Рудольф Панков)
Локи - Том Хиддлстон (Александр Гаврилин)
Эрик Сельвиг - Стеллан Скарсгард (Василий Бочкарев)
Дарси Льюис - Кэт Деннингс (Полина Чекан)
Агент Коулсон - Кларк Грегг (Андрей Казанцев)
Хеймделл - Идрис Эльба (Владислав Копп)
Король Лофи - Колм Фиор (Александр Новиков)
Вольстагг - Рэй Стивенсон (Сергей Чихачев)
Хогюн - Таданобу Асано (Пётр Иващенко)
Фандрал - Джошуа Даллас (Дмитрий Курта)
Сиф - Джейми Александр (Александра Фатхи)
Фригга - Рене Руссо (Ольга Зубкова)
Изабель Альварез - Адриана Барраза
Агент Ситвелл - Максимилианно Эрнандез
Ник Фьюри - Сэмюэл Л. Джексон (Владимир Антоник)
Клинт Бёртон / Ястребиный Глаз - Джереми Реннер (Андрей Бархударов)-Описание: Эпическое приключение происходит как на нашей планете Земля, так и в вымышленном королевстве богов Асгарде. В центре истории — Могучий Тор, сильный, но высокомерный воин, чьи безрассудные поступки возрождают древнюю войну в Асгарде. Тора отправляют в ссылку на Землю, лишают сил и заставляют жить среди обычных людей в качестве наказания. Тор узнает, сколько требуется сил, чтобы стать настоящим героем, когда самый опасный злодей его мира направляет темные силы поглотить Землю.

Знаете ли вы, что...

  • Тора могли сыграть Чаннинг Татум, Чарли Ханнэм, Александр Скарсгард, Лайам Хемсворт (к слову, брат Криса Хемсворта), Кевин МакКидд, Джоэль Киннаман и чемпион WWE Пол Левески. По слухам главная роль в проекте интересовала даже таких звезд как Брэд Питт, Мэтт Дэймон и Леонардо ДиКаприо. Играющий Локи Том Хиддлстон также пробовался на роль Тора.
  • На роль подруги главного героя Джейн Фостер претендовали Джемма Артертон и Джессика Бил. Бил к тому же прослушивалась и на роль Сиф.
  • В 2005 году фильм собирался снимать режиссер «Слоеного торта» и «Звездной пыли» Мэттью Вон. В 90-ых Сэм Рэйми хотел стать постановщиком «Тора» сразу же после «Человека тьмы». Несмотря на то, что работа над «Тором» так и не началась, Рэйми снял три фильма о другом супергерое вселенной Марвел, Человеке-пауке.
  • Дэниэл Крэйг отклонил предложение сыграть Тора.
  • Долгое время главным фаворитом на роль Локи был Джим Керри. По слухам главного отрицательного персонажа так же мог сыграть Джош Хартнетт.
  • После финальных титров, как и во всех предыдущих фильмах «MARVEL Studios», есть секретная сцена. В ней профессор Селвиг прибывает в секретный подземный бункер к Нику Фьюри (чью роль исполняет Сэмюэл Джексон). Фьюри показывает Селвигу артефакт невиданной силы, заключающий в себе бесконечную энергию - Космический Куб, и предлагает заняться исследованием этой штуковины. В отражении профессора Селвига в зеркальной поверхности стены мы видим силуэт выжившего Локи, который с помощью своей магии принуждает профессора согласиться.
  • Фильм основан на комиксах о Торе, впервые появившегося в «Journey into Mystery» #83 в 1962-ом году. Персонаж был придуман Стэном Ли, Ларри Либером и Джеком Кирби.
  • Стрелок, который предпочёл снайперский лук всем винтовкам из арсенала Щ.И.Т. а, никто иной как Клинт Бартон, Хоукай - ещё один герой, в «Торе» дебютировавший в киновселенной MARVEL Studios. Мы можем слышать, как агент Коулсон называет его по фамилии.
  • Роль водителя белого грузовичка, у которого сорвало кузов при попытке сдвинуть Мьёллнир, исполняет сам Стэн Ли - человек, стоявший у истоков MARVEL Comics! Так уж заведено, что Стэн делает эпизодическое появление в каждом фильме MARVEL, в том числе и в фильмах новой киновселенной MARVEL Studios.
  • Человек, первый приехавший к воронке на своём красном грузовичке, никто иной как Джей Майкл Стражински - сценарист многих весьма успешных комиксов, среди заслуг которого есть весьма неплохая сюжетная линия комиксов о Торе.
  • Чтобы подготовиться к своей роли Локи, Том Хиддлстон обучался бразильскому боевому искусству капоэйра.
  • Для фильма была построена модель брони Разрушителя.
  • Том Хиддлстон готовился к роли, придерживаясь строгой диеты, как до начала съемок так и во время всего процесса, чтобы у Локи был скудный, но голодный вид.
  • В фильме «Железный человек 2» (2010), молот Тора – Мьёльнир был впервые показан лежащим в кратере в Нью-Мексико. Это было основано на комиксах, где, в период после апокалиптического события на Асгарде, Мьёльнир был отправлен на Землю в Нью-Мексико, где он лежал, пока Тор не пришел вернуть его.
  • Один из артефактов, которые можно заметить в сокровищнице Одина, напрямую связан с секретной сценой после фильма «Мстители», являющегося продолжением «Тора».
  • Премьера: 21 апреля 2011
    Бюджет: $150 000 000
    Кассовые сборы: $449 326 618
    DVD в США: $26 446 721

    Формат 3d: Anamorph OverUnder
    Качество: BDrip
    Контейнер: MKV
    Видео: AVC / 1920х1080p / 23,976 fps / 8832 Kbps
    Аудио#1: Русский / AC3 / 48 KHz / 5.1 ch / 640 Kbps
    Аудио#2: Английский / AC3 / 48 KHz / 5.1 ch / 640 Kbps

    MediaInfo

    General
    UniqueID : 237359389461766564509153334046179730765 (0xB291C16D5614BA8BBD556A21BAD8254D)
    Complete name : F:\Downloads\Thor3D.halfOU.AC3.AVO.ash61.mkv
    Format : Matroska
    File size : 8.28 GiB
    Duration : 1h 54mn
    Overall bit rate : 10.3 Mbps
    Movie name : Thor.ash61
    Encoded date : UTC 2011-09-09 12:40:31
    Writing application : mkvmerge v3.4.0 ('Rapunzel') сборка от May 15 2010 09:38:20
    Writing library : libebml v0.8.0 + libmatroska v0.9.0
    Video
    ID : 1
    Format : AVC
    Format/Info : Advanced Video Codec
    Format profile : High@L4.1
    Format settings, CABAC : Yes
    Format settings, ReFrames : 4 frames
    Codec ID : V_MPEG4/ISO/AVC
    Duration : 1h 54mn
    Bit rate : 8 832 Kbps
    Width : 1 920 pixels
    Height : 1 080 pixels
    Display aspect ratio : 16:9
    Frame rate : 23.976 fps
    Color space : YUV
    Chroma subsampling : 4:2:0
    Bit depth : 8 bits
    Scan type : Progressive
    Bits/(Pixel*Frame) : 0.178
    Stream size : 7.08 GiB (86%)
    Title : Rip by Ash61
    Writing library : x264 core 113 r1884 7313bb5
    Encoding settings : cabac=1 / ref=4 / deblock=1:-3:-3 / analyse=0x3:0x113 / me=umh / subme=9 / psy=1 / psy_rd=1.00:0.15 / mixed_ref=1 / me_range=16 / chroma_me=1 / trellis=2 / 8x8dct=1 / cqm=0 / deadzone=21,11 / fast_pskip=1 / chroma_qp_offset=-3 / threads=3 / sliced_threads=0 / nr=0 / decimate=1 / interlaced=0 / constrained_intra=0 / bframes=6 / b_pyramid=2 / b_adapt=2 / b_bias=0 / direct=3 / weightb=1 / open_gop=0 / weightp=2 / keyint=250 / keyint_min=23 / scenecut=40 / intra_refresh=0 / rc_lookahead=60 / rc=crf / mbtree=1 / crf=18.0 / qcomp=0.70 / qpmin=1 / qpmax=51 / qpstep=4 / ip_ratio=1.40 / aq=1:1.00
    Audio #1
    ID : 2
    Format : AC-3
    Format/Info : Audio Coding 3
    Mode extension : CM (complete main)
    Codec ID : A_AC3
    Duration : 1h 54mn
    Bit rate mode : Constant
    Bit rate : 640 Kbps
    Channel(s) : 6 channels
    Channel positions : Front: L C R, Side: L R, LFE
    Sampling rate : 48.0 KHz
    Bit depth : 16 bits
    Compression mode : Lossy
    Stream size : 526 MiB (6%)
    Language : Russian
    Audio #2
    ID : 3
    Format : AC-3
    Format/Info : Audio Coding 3
    Mode extension : CM (complete main)
    Codec ID : A_AC3
    Duration : 1h 54mn
    Bit rate mode : Constant
    Bit rate : 640 Kbps
    Channel(s) : 6 channels
    Channel positions : Front: L C R, Side: L R, LFE
    Sampling rate : 48.0 KHz
    Bit depth : 16 bits
    Compression mode : Lossy
    Stream size : 526 MiB (6%)
    Language : English
    Menu
    00:00:00.000 : :01
    00:10:38.137 : :02
    00:17:33.135 : :03
    00:26:02.603 : :04
    00:32:28.196 : :05
    00:37:28.413 : :06
    00:42:14.198 : :07
    00:52:10.377 : :08
    01:01:24.973 : :09
    01:08:45.538 : :10
    01:15:39.160 : :11
    01:21:19.249 : :12
    01:30:35.347 : :13
    01:40:58.177 : :14
    01:45:13.724 : :15
    01:53:06.196 : :16

    Скриншоты

    Cover & Label


    Остальные раздачи этого фильма (6)
    Благодарности релизеру (25)

    Торрент:

    Статус:

    Размер:

    Зарегистрирован   [ 2011-09-09 17:25 ]

    проверено

    8.28 GB