Торренты   
 
 

 

Tайна красной планеты 3Д / Мars Nееds Мoms 3D (Cаймoн Уэллс / Simоn Wеlls) [2011, мультфильм, фантастика, комедия, приключения BDrip, 1080p] Anaglyph Dubois / Анаглиф Дюбуа

Рейтинг 3D:
21 голосов
7.9
Рейтинг фильма:
22 голосов
8.1
 
Вы должны быть авторизированы,
чтобы ставить оценки


Tайна красной планеты 3D / Мars Needs Moms 3D
Год выпуска: 2011
Страна: США
Жанр: Мультфильм, Фантастика, Комедия
Продолжительность: 01:28:01
Перевод: Профессиональный (полное дублирование)
Режиссер: Саймон Уэллс / Simon Wells
В ролях: Роли озвучивали:
Майло - Seth Green
Гриббл - Dan Fogler (Диомид Виноградов)
Мама - Joan Cusack (Анастасия Лапина)
Ки - Elisabeth Harnois (Жанна Агузарова)
Supervisor - Mindy Sterling
Wingnut - Kevin Cahoon
Папа - Tom Everett Scott
Описание: Есть мерзкую брокколи, выносить мусор, рано ложиться спать — кому вообще нужны мамы, заставляющие это делать? Так думал Майло, пока не обнаружил, что его маму похитили марсиане. Тут-то и оказалось, что ему предстоит отправиться на другую планету, чтобы найти маму и вернуть ее домой.
Доп. информация: Формат 3D: Анаглиф red-cyan (Дюбуа)
Порядок ракурсов: левый ракурс первый
Источник :http://rutracker.org/forum/viewtopic.php?t=3687960
Формат 3d: Anaglyph
Цвета очков:

Качество: BDrip
Контейнер: MKV
Видео: AVC, NTSC, 1920x800, 16:9, 6100 Kbps, 23,976
Аудио1:Русский, Дублированный, АС-3, 6 channels, 48.0 KHz, 384 Kbps
Аудио2:Английский, АС-3, 6 channels, 48.0 KHz, 640 Kbps

MI

[General
Format : Matroska
File size : 4.47 GiB
Duration : 1h 28mn
Overall bit rate : 7 267 Kbps
Encoded date : UTC 2011-08-11 14:30:20
Writing application : mkvmerge v4.4.0 ('Die Wiederkehr') сборка от Oct 31 2010 21:52:48
Writing library : libebml v1.0.0 + libmatroska v1.0.0
Video
ID : 1
Format : AVC
Format/Info : Advanced Video Codec
Format profile : High@L4.0
Format settings, CABAC : Yes
Format settings, ReFrames : 4 frames
Format settings, GOP : M=1, N=54
Codec ID : V_MPEG4/ISO/AVC
Duration : 1h 28mn
Bit rate : 6 099 Kbps
Width : 1 920 pixels
Height : 800 pixels
Display aspect ratio : 2.40:1
Frame rate : 23.976 fps
Color space : YUV
Chroma subsampling : 4:2:0
Bit depth : 8 bits
Scan type : Progressive
Bits/(Pixel*Frame) : 0.166
Stream size : 3.75 GiB (84%)
Title : Anaglyph Dubois by Boss-Master
Writing library : x264 core 115 r1995 c1e60b9
Encoding settings : cabac=1 / ref=4 / deblock=1:-2:-2 / analyse=0x3:0x113 / me=umh / subme=9 / psy=1 / psy_rd=1.00:0.15 / mixed_ref=1 / me_range=16 / chroma_me=1 / trellis=2 / 8x8dct=1 / cqm=0 / deadzone=21,11 / fast_pskip=1 / chroma_qp_offset=-3 / threads=6 / sliced_threads=0 / nr=0 / decimate=1 / interlaced=0 / bluray_compat=0 / constrained_intra=0 / bframes=6 / b_pyramid=0 / b_adapt=2 / b_bias=0 / direct=3 / weightb=1 / open_gop=0 / weightp=2 / keyint=250 / keyint_min=23 / scenecut=40 / intra_refresh=0 / rc_lookahead=40 / rc=crf / mbtree=1 / crf=18.0 / qcomp=0.60 / qpmin=10 / qpmax=69 / qpstep=4 / ip_ratio=1.40 / aq=1:1.00
Audio #1
ID : 2
Format : AC-3
Format/Info : Audio Coding 3
Mode extension : CM (complete main)
Codec ID : A_AC3
Duration : 1h 28mn
Bit rate mode : Constant
Bit rate : 384 Kbps
Channel(s) : 6 channels
Channel positions : Front: L C R, Side: L R, LFE
Sampling rate : 48.0 KHz
Bit depth : 16 bits
Compression mode : Lossy
Stream size : 242 MiB (5%)
Language : Russian
Audio #2
ID : 3
Format : AC-3
Format/Info : Audio Coding 3
Mode extension : CM (complete main)
Codec ID : A_AC3
Duration : 1h 28mn
Bit rate mode : Constant
Bit rate : 640 Kbps
Channel(s) : 6 channels
Channel positions : Front: L C R, Side: L R, LFE
Sampling rate : 48.0 KHz
Bit depth : 16 bits
Compression mode : Lossy
Stream size : 403 MiB (9%)
Language : English]

Скриншоты




Остальные раздачи этого фильма (6)
Благодарности релизеру (1)

Торрент:

Статус:

Размер:

Зарегистрирован   [ 2011-09-08 11:51 ]

проверено

4.47 GB

 
 Мнение о фильме (5)





Мультфильм прикольный смотрел ещё в 2D
 

Мультик хороший, интересно было смотреть и смысл есть =)
 

Один раз посмотреть можно, очень уж фантастический. Снято качественно, 3D на хорошем уровне.
P.S. - не люблю звёздные войны!
 

Мультик хороший мне понравился
 

На один раз.