Торренты   
 
 


Тор / Thor [2011 г, 1080p, BDrip, OverUnder]

Рейтинг 3D:
61 голосов
6.8
Рейтинг фильма:
62 голосов
7.6
 
Вы должны быть авторизированы,
чтобы ставить оценки


Тор / Thor
Год выпуска: 2011
Страна: США
Жанр: Фэнтези, Боевик, Приключения
Продолжительность: 01:54:49
Перевод:
1) Дубляж
2) Любительский (одноголосый) (В.Замез)
Режиссер: Кеннет Брэна, Джосс Уидон / Kenneth Branagh, Joss Whedon
В ролях: Крис Хемсворт, Натали Портман, Энтони Хопкинс, Том Хиддлстон, Стеллан Скарсгард, Кэт Деннингс, Кларк Грегг, Идрис Эльба, Колм Фиор, Рэй Стивенсон, Джейми Александр, Рене Руссо
Описание: Эпическое приключение происходит как на нашей планете Земля, так и в вымышленном королевстве богов Асгарде. В центре истории - Могучий Тор, сильный, но высокомерный воин, чьи безрассудные поступки возрождают древнюю войну в Асгарде. Тора отправляют в ссылку на Землю, лишают сил и заставляют жить среди обычных людей в качестве наказания… Формат 3d: OverUnder
Качество: BDrip
Контейнер: MKV
Видео: AVC / 1920х2160p / 23,976 fps / 21,8 Мбит/сек
Аудио#1: Русский Дубляж / AC3 / 48 KHz / 5.1 ch / 640 Kbps
Аудио#2: Русский (В.Замез) / AC3 / 48 KHz / 5.1 ch / 448 Kbps
Аудио#3: Английский / AC3 / 48 KHz / 5.1 ch / 640 Kbps
Субтитры#1: Русский S_TEXT/UTF8
Субтитры#2: Английский S_TEXT/UTF8

MediaInfo

Общее
Уникальный идентификатор : 225877430603281142836576535603996315245 (0xA9EE6925FEC6185E8213989994E0CE6D)
Полное имя : Thor_OU_1080p_By_TopGun.mkv
Формат : Matroska
Размер файла : 19,3 Гбайт
Продолжительность : 1 ч. 54 м.
Общий поток : 24,0 Мбит/сек
Название фильма : 720p BDRip by HiDt
Дата кодирования : UTC 2011-09-09 14:01:06
Программа кодирования : mkvmerge v4.8.0 ('I Got The...') сборка от May 24 2011 03:12:58
Библиотека кодирования : libebml v1.2.0 + libmatroska v1.1.0
Видео
Идентификатор : 1
Формат : AVC
Формат/Информация : Advanced Video Codec
Профиль формата : High@L5.0
Параметр CABAC формата : Да
Параметр ReFrames формата : 4 кадры
Режим смешивания : Header stripping
Идентификатор кодека : V_MPEG4/ISO/AVC
Продолжительность : 1 ч. 54 м.
Битрейт : 21,8 Мбит/сек
Ширина : 1920 пикс.
Высота : 2160 пикс.
Соотношение сторон : 0,889
Частота кадров : 23,976 кадр/сек
Цветовое пространство : YUV
Подвыборка цветности : 4:2:0
Битовая глубина : 8 бит
Тип развёртки : Прогрессивная
Бит/(Пиксели*Кадры) : 0.219
Размер потока : 17,5 Гбайт (91%)
Библиотека кодирования : x264 core 114 r1924 08d04a4
Настройки программы : cabac=1 / ref=4 / deblock=1:-3:-3 / analyse=0x3:0x133 / me=umh / subme=10 / psy=1 / psy_rd=1.05:0.15 / mixed_ref=1 / me_range=16 / chroma_me=1 / trellis=2 / 8x8dct=1 / cqm=0 / deadzone=21,11 / fast_pskip=0 / chroma_qp_offset=-3 / threads=6 / sliced_threads=0 / nr=0 / decimate=1 / interlaced=0 / constrained_intra=0 / bframes=6 / b_pyramid=2 / b_adapt=2 / b_bias=0 / direct=3 / weightb=1 / open_gop=0 / weightp=2 / keyint=250 / keyint_min=23 / scenecut=40 / intra_refresh=0 / rc_lookahead=30 / rc=crf / mbtree=1 / crf=18.0 / qcomp=0.70 / qpmin=10 / qpmax=69 / qpstep=4 / ip_ratio=1.40 / aq=1:0.90
Аудио #1
Идентификатор : 2
Формат : AC-3
Формат/Информация : Audio Coding 3
Расширение режима : CM (complete main)
Режим смешивания : Header stripping
Идентификатор кодека : A_AC3
Продолжительность : 1 ч. 54 м.
Вид битрейта : Постоянный
Битрейт : 640 Кбит/сек
Канал(ы) : 6 канала(ов)
Расположение каналов : Front: L C R, Side: L R, LFE
Частота : 48,0 КГц
Битовая глубина : 16 бит
Метод сжатия : С потерями
Размер потока : 526 Мбайт (3%)
Заголовок : AC3 5.1 @ 640 kbps - Дубляж, Blu-ray CEE
Язык : Russian
Аудио #2
Идентификатор : 3
Формат : AC-3
Формат/Информация : Audio Coding 3
Расширение режима : CM (complete main)
Режим смешивания : Header stripping
Идентификатор кодека : A_AC3
Продолжительность : 1 ч. 54 м.
Вид битрейта : Постоянный
Битрейт : 448 Кбит/сек
Канал(ы) : 6 канала(ов)
Расположение каналов : Front: L C R, Side: L R, LFE
Частота : 48,0 КГц
Битовая глубина : 16 бит
Метод сжатия : С потерями
Размер потока : 368 Мбайт (2%)
Заголовок : В. Замез
Язык : Russian
Аудио #3
Идентификатор : 4
Формат : AC-3
Формат/Информация : Audio Coding 3
Расширение режима : CM (complete main)
Режим смешивания : Header stripping
Идентификатор кодека : A_AC3
Продолжительность : 1 ч. 54 м.
Вид битрейта : Постоянный
Битрейт : 640 Кбит/сек
Канал(ы) : 6 канала(ов)
Расположение каналов : Front: L C R, Side: L R, LFE
Частота : 48,0 КГц
Битовая глубина : 16 бит
Метод сжатия : С потерями
Размер потока : 526 Мбайт (3%)
Язык : English
Текст #1
Идентификатор : 5
Формат : UTF-8
Идентификатор кодека : S_TEXT/UTF8
Идентификатор кодека/Информация : UTF-8 Plain Text
Язык : Russian
Текст #2
Идентификатор : 6
Формат : UTF-8
Идентификатор кодека : S_TEXT/UTF8
Идентификатор кодека/Информация : UTF-8 Plain Text
Язык : English
Меню
00:00:00.000 : en:Chapter 01
00:10:38.137 : en:Chapter 02
00:17:33.135 : en:Chapter 03
00:26:02.602 : en:Chapter 04
00:32:28.196 : en:Chapter 05
00:37:28.412 : en:Chapter 06
00:42:14.198 : en:Chapter 07
00:52:10.377 : en:Chapter 08
01:01:24.972 : en:Chapter 09
01:08:45.538 : en:Chapter 10
01:15:39.159 : en:Chapter 11
01:21:19.249 : en:Chapter 12
01:30:35.346 : en:Chapter 13
01:40:58.177 : en:Chapter 14
01:45:13.724 : en:Chapter 15
01:53:06.196 : en:Chapter 16

Скриншоты



Остальные раздачи этого фильма (6)
Благодарности релизеру (4)

Торрент:

Статус:

Размер:

Зарегистрирован   [ 2012-05-06 21:19 ]

проверено

19.27 GB