Торренты   
 
 


Красная Шапка против зла / Hoodwinked Too! Hood VS. Evil (Майкл Д’Иса-Хоган) [2011 г., BDRip 1080p, Full OverUnder]

Рейтинг 3D:
1 голосов
6.0
Рейтинг фильма:
1 голосов
4.0
 
Вы должны быть авторизированы,
чтобы ставить оценки


Красная Шапка против зла / Hoodwinked Too! Hood VS. Evil
Год выпуска: 2011
Страна: США
Жанр: Мультфильм, Семейный
Продолжительность: 01:26:18
Перевод: Профессиональный (полное дублирование)
Режиссер: Майкл Д’Иса-Хоган
В ролях: Гленн Клоуз, Хайден Панеттьери, Чич Марин, Патрик Варбертон, Джоан Кьюсак, Билл Хэйдер, Дэвид Огден Стайерз, Эми Полер, Кори Эдвардс, Мартин Шорт
Описание: Красная Шапка проходит курс подготовки в шпионской школе «Хитрый Дятел» и становится секретным агентом. Глава разведшколы сразу кидает Шапку в самое пекло. Ее миссия — расследовать загадочное исчезновение Гензель и Гретель. Возможно, Шапка так бы и провалила первое задание, но отважная Бабушка, Волк — папарацци и вся банда лесной братвы сотрут в порошок любого, кто встанет на пути любимой внученьки. Пусть это будет хоть само Зло!..

Формат 3d: OverUnder
Видео: AVC, h264, 1920х2160, 23,976 кадр/сек, 9665 Кбит/сек
Аудио: Rus, AC-3, 6 каналов, 448 Кбит/сек, 48,0 КГц
Аудио: Eng, AC-3, 6 каналов, 640 Кбит/сек, 48,0 КГц

Скриншоты




me

Общее
Уникальный идентификатор : 201935998408914767879791398173728947306 (0x97EB7568066956F191DD80EA00BDBC6A)
Полное имя : D:\_Stereo\Hoodwinked Too! Hood VS. Evil.mkv
Формат : Matroska
Размер файла : 6,62 Гбайт
Продолжительность : 1 ч. 26 м.
Общий поток : 11,0 Мбит/сек
Дата кодирования : UTC 2011-09-07 08:09:07
Программа кодирования : mkvmerge v3.4.0 ('Rapunzel') сборка от May 15 2010 09:38:20
Библиотека кодирования : libebml v0.8.0 + libmatroska v0.9.0
Видео
Идентификатор : 1
Формат : AVC
Формат/Информация : Advanced Video Codec
Профиль формата : High@L5.0
Параметр CABAC формата : Да
Параметр ReFrames формата : 4 кадры
Идентификатор кодека : V_MPEG4/ISO/AVC
Продолжительность : 1 ч. 26 м.
Битрейт : 9665 Кбит/сек
Ширина : 1920 пикс.
Высота : 2160 пикс.
Соотношение сторон : 0,889
Частота кадров : 23,976 кадр/сек
Цветовое пространство : YUV
Подвыборка цветности : 4:2:0
Битовая глубина : 8 бит
Тип развёртки : Прогрессивная
Бит/(Пиксели*Кадры) : 0.097
Размер потока : 5,83 Гбайт (88%)
Библиотека кодирования : x264 core 116 r2074 2641b9e
Настройки программы : cabac=1 / ref=4 / deblock=1:-3:-3 / analyse=0x3:0x113 / me=umh / subme=9 / psy=1 / psy_rd=1.00:0.00 / mixed_ref=1 / me_range=16 / chroma_me=1 / trellis=2 / 8x8dct=1 / cqm=0 / deadzone=21,11 / fast_pskip=1 / chroma_qp_offset=-3 / threads=9 / sliced_threads=0 / nr=0 / decimate=1 / interlaced=0 / bluray_compat=0 / constrained_intra=0 / bframes=6 / b_pyramid=0 / b_adapt=2 / b_bias=0 / direct=3 / weightb=1 / open_gop=0 / weightp=2 / keyint=250 / keyint_min=23 / scenecut=40 / intra_refresh=0 / rc_lookahead=40 / rc=crf / mbtree=1 / crf=18.0 / qcomp=0.60 / qpmin=0 / qpmax=69 / qpstep=4 / ip_ratio=1.40 / aq=1:1.00
Язык : English
Аудио #1
Идентификатор : 2
Формат : AC-3
Формат/Информация : Audio Coding 3
Расширение режима : CM (complete main)
Идентификатор кодека : A_AC3
Продолжительность : 1 ч. 26 м.
Вид битрейта : Постоянный
Битрейт : 448 Кбит/сек
Канал(ы) : 6 канала(ов)
Расположение каналов : Front: L C R, Side: L R, LFE
Частота : 48,0 КГц
Битовая глубина : 16 бит
Метод сжатия : С потерями
Размер потока : 277 Мбайт (4%)
Язык : Russian
Аудио #2
Идентификатор : 3
Формат : AC-3
Формат/Информация : Audio Coding 3
Расширение режима : CM (complete main)
Идентификатор кодека : A_AC3
Продолжительность : 1 ч. 26 м.
Вид битрейта : Постоянный
Битрейт : 640 Кбит/сек
Канал(ы) : 6 канала(ов)
Расположение каналов : Front: L C R, Side: L R, LFE
Частота : 48,0 КГц
Битовая глубина : 16 бит
Метод сжатия : С потерями
Размер потока : 395 Мбайт (6%)
Язык : English
Скриншоты сравнения
Благодарности релизеру (1)

Торрент:

Статус:

Размер:

Зарегистрирован   [ 2011-09-08 21:19 ]

проверено

6.62 GB