Торренты   
 
 


Пираты Карибского моря: На странных берегах 3D / Pirates of the Caribbean: On Stranger Tides 3D (Роб Маршалл) [2011, BDrip, 1080p, Anaglyph, red'cyan (Dubois)]

Рейтинг 3D:
96 голосов
6.7
Рейтинг фильма:
97 голосов
7.2
 
Вы должны быть авторизированы,
чтобы ставить оценки


Пираты Карибского моря: На странных берегах 3D / Pirates of the Caribbean: On Stranger Tides 3D
Год выпуска: 2011
Страна: США
Студия: Walt Disney Pictures, Jerry Bruckheimer Films, Mov
Жанр: фэнтези, боевик, комедия, приключения
Продолжительность: 02:16:22
Перевод: Профессиональный (дублированный)
Русские субтитры: нет
Режиссер на русском: Роб Маршалл
В ролях: Джонни Депп, Пенелопа Крус, Джеффри Раш, Иэн МакШейн, Кевин МакНэлли, Стивен Грэм, Сэм Клафлин, Астрид Берже-Фрисби, Кит Ричардс, Ричард Гриффитс
Описание: В новой истории о поисках истины, предательстве, вечной молодости и смертельной опасности капитану Джеку Воробью предстоит столкнуться с женщиной из своего прошлого Анжеликой. До самого конца не будет понятно, связывает ли их настоящая любовь, или же Анжелика искусно притворяется, чтобы вместе с Джеком добраться до таинственного источника вечной молодости. Она силой принуждает капитана Джека Воробья взойти на корабль «Месть Королевы Анны», которым управляет коварный злодей Черная Борода. Наш герой оказывается в ситуации, когда он не знает, чего ему бояться больше — ужасного злодея или же свою давнюю подругу...
Качество: BDrip
Контейнер: MKV
Формат 3D: Анаглиф red-cyan (Дюбуа)
Порядок ракурсов: левый ракурс первый
Видео кодек: h.264
Аудио кодек: AC3
Видео: MPEG4 Video (H264) 1920x1080 23.98fps 9751 Kbps
Аудио: Русский / Дублированный, AC3, 6ch, 48,0 КHz, 384 Kbps
Аудио 2: Английский, AC3, 6ch, 48,0 КHz, 640 Kbps

MediaInfo

General
Format : Matroska
File size : 10.5 GiB
Duration : 2h 16mn
Overall bit rate : 11.0 Mbps
Encoded date : UTC 2011-09-07 16:53:54
Writing application : mkvmerge v4.4.0 ('Die Wiederkehr') сборка от Oct 31 2010 21:52:48
Writing library : libebml v1.0.0 + libmatroska v1.0.0
Video
ID : 1
Format : AVC
Format/Info : Advanced Video Codec
Format profile : High@L4.0
Format settings, CABAC : Yes
Format settings, ReFrames : 4 frames
Codec ID : V_MPEG4/ISO/AVC
Duration : 2h 16mn
Bit rate : 9 751 Kbps
Width : 1 920 pixels
Height : 1 080 pixels
Display aspect ratio : 16:9
Frame rate : 23.976 fps
Color space : YUV
Chroma subsampling : 4:2:0
Bit depth : 8 bits
Scan type : Progressive
Bits/(Pixel*Frame) : 0.196
Stream size : 9.29 GiB (89%)
Title : Anaglyph Dubois by Boss-Master
Writing library : x264 core 115 r1995 c1e60b9
Encoding settings : cabac=1 / ref=4 / deblock=1:-2:-2 / analyse=0x3:0x113 / me=umh / subme=9 / psy=1 / psy_rd=1.00:0.15 / mixed_ref=1 / me_range=16 / chroma_me=1 / trellis=2 / 8x8dct=1 / cqm=0 / deadzone=21,11 / fast_pskip=1 / chroma_qp_offset=-3 / threads=6 / sliced_threads=0 / nr=0 / decimate=1 / interlaced=0 / bluray_compat=0 / constrained_intra=0 / bframes=6 / b_pyramid=0 / b_adapt=2 / b_bias=0 / direct=3 / weightb=1 / open_gop=0 / weightp=2 / keyint=250 / keyint_min=23 / scenecut=40 / intra_refresh=0 / rc_lookahead=40 / rc=crf / mbtree=1 / crf=18.0 / qcomp=0.60 / qpmin=10 / qpmax=69 / qpstep=4 / ip_ratio=1.40 / aq=1:1.00
Language : Russian
Audio #1
ID : 2
Format : AC-3
Format/Info : Audio Coding 3
Mode extension : CM (complete main)
Codec ID : A_AC3
Duration : 2h 16mn
Bit rate mode : Constant
Bit rate : 384 Kbps
Channel(s) : 6 channels
Channel positions : Front: L C R, Side: L R, LFE
Sampling rate : 48.0 KHz
Bit depth : 16 bits
Compression mode : Lossy
Stream size : 375 MiB (3%)
Language : Russian
Audio #2
ID : 3
Format : AC-3
Format/Info : Audio Coding 3
Mode extension : CM (complete main)
Codec ID : A_AC3
Duration : 2h 16mn
Bit rate mode : Constant
Bit rate : 640 Kbps
Channel(s) : 6 channels
Channel positions : Front: L C R, Side: L R, LFE
Sampling rate : 48.0 KHz
Bit depth : 16 bits
Compression mode : Lossy
Stream size : 624 MiB (6%)
Language : English

Скриншоты

Остальные раздачи этого фильма (7)
Благодарности релизеру (4)

Торрент:

Статус:

Размер:

Зарегистрирован   [ 2011-09-10 15:42 ]

проверено

10.47 GB

 
 Мнение о фильме (20)





Elechka0920
вылета маловато в фильме да, но глубина изображения на уровне
 

Фильм РЕКОМЕНДУЮ класно снят!!!
 

Благодарю за труд! Фильм великолепный!
 

А никому еще, кроме меня, не показалось, что рука скелета в конце фильма должна была прямо перед носом остановиться? Почему 3D такое не качественное везде? Специально ослабляют эффекты, чтобы народ не сильно нервничал? И как можно усилить эти эффекты?
 

Класс!
 

Посмотреть не удалось. Сам виноват-не прочитал Ваше предупреждение о ТВ -плейерах
 

Детям понравилось. А сама еще не смотрела
 

То, что и ожидал
 

Спасибо,хотя и многие ходы фильма предсказуемы - держит в напряжении.Посмотреть стоит
 

Спасибо за раздачу! Нормальный фильм, нормальное 3Д
 

Фильм класс, пересматривал уже раза 3 наверно все части. вот теперь и в 3D.
3D вполне нормальное, глубина есть, вылетов конечно маловато 2-3 раза примерно, с рукой конечно могли и побольше сделать вылет.
 

В кинотеатре больше всего запомнился момент с русалками. Они выплывали как бы из-за ушей.
А вот дома несколько раз это место пересматривал меняя настройки - нету такого эффекта. Печаль.
 

Спасибо за фильм релизёру. Качество отменное, тем более на весь экран... - смотреть одно удовольствие!!!
 

скажите,люди-есть ли разница в весе фильма?больше гигов-лучше эффект???
 

НЕТ
 

А есть предыдущие части в 3Д?
 

Фильм РЕКОМЕНДУЮ классно снят!!!
 

дайте раздачу пожалуйста
 

Скорость просто завораживает,думаю через недельку фильм посмотрю
 

фильм из закачки был торжественно удален