Торренты   
 
 

 

Кошмар перед Рождеством / The Nightmare Before Christmas [1993 г, 1080p, BDrip, Anamorph OverUnder]

Рейтинг 3D:
3 голосов
9.3
Рейтинг фильма:
3 голосов
9.7
 
Вы должны быть авторизированы,
чтобы ставить оценки


Кошмар перед Рождеством
The Nightmare Before Christmas

Год выпуска: 1993
Страна: США, Walt Disney Pictures
Жанр: Мультфильм, Мюзикл, Фэнтези
Продолжительность: 01:16:36
Перевод: Профессиональный (многоголосый закадровый Taycoon)
+ Дубляж
+ Профессиональный (многоголосый закадровый НТВ+)
Сценарист и продюсер: Тим Бёртон... / Tim Burton...
Режиссер: Генри Селик / Henry Selick
В ролях: Дэнни Элфман, Крис Сарандон, Кэтрин О’Хара, Уильям Хикки, Гленн Шэдикс, Пол Рубенс, Кен Пейдж, Эд Айвори, Сьюзэн МакБрайд, Деби Дерст, Грег Прупс, Керри Кац
Описание: Мультфильм рассказывает о царстве Хэллоуин, царстве страхов и кошмаров, где живут мертвецы, уродцы, чудовища во главе с царем ужасов Джеком Скелингтоном. Под рождество Джек случайно попадает в город Рождества, где узнает, что есть где-то радость, добро и веселье.
Ему страшно захотелось испытать это чувство — дарить людям счастье — и он похитил Сэнди Клауса и занял его место. Результаты были, правда, самые плачевные, да и подарки его никому, мягко говоря, не понравились. Но он все понял и исправил свою ошибку.
Доп. информация: Во всех озвучках песни тоже переведены.Проверено на встроенном плейере ТВ Samsung UE-C7000 Формат 3d: Anamorph OverUnder
Качество: BDrip
Контейнер: MKV
Видео: AVC / 1920х1080p / 23,976 fps / 12.9 Mbps
Аудио#1: Русский / AC3 / 48 KHz / 5.1 ch / 640 Kbps (MVO - Tycoon)
Аудио#2: Русский / AC3 / 48 KHz / 5.1 ch / 448 Kbps (Дубляж)
Аудио#3: Русский / AC3 / 48 KHz / 5.1 ch / 384 Kbps (MVO - НТВ+)
Аудио#4: Английский / AC3 / 48 KHz / 5.1 ch / 640 Kbps

MediaInfo

General
UniqueID : 189702044245907011916941093344861988808 (0x8EB748E589A2EBCA9A27626F2EABA7C8)
Complete name : F:\Downloads\NightmareBeforeChristmas3D.halfOU.AC3.ash61.mkv
Format : Matroska
File size : 8.23 GiB
Duration : 1h 16mn
Overall bit rate : 15.4 Mbps
Movie name : Nightmare Before Christmas 3d (ash61)
Encoded date : UTC 2011-09-11 17:25:28
Writing application : mkvmerge v3.4.0 ('Rapunzel') сборка от May 15 2010 09:38:20
Writing library : libebml v0.8.0 + libmatroska v0.9.0
Video
ID : 1
Format : AVC
Format/Info : Advanced Video Codec
Format profile : High@L4.1
Format settings, CABAC : Yes
Format settings, ReFrames : 4 frames
Codec ID : V_MPEG4/ISO/AVC
Duration : 1h 16mn
Bit rate : 12.9 Mbps
Width : 1 920 pixels
Height : 1 080 pixels
Display aspect ratio : 16:9
Frame rate : 23.976 fps
Color space : YUV
Chroma subsampling : 4:2:0
Bit depth : 8 bits
Scan type : Progressive
Bits/(Pixel*Frame) : 0.260
Stream size : 6.93 GiB (84%)
Title : Rip by ash61
Writing library : x264 core 113 r1884 7313bb5
Encoding settings : cabac=1 / ref=4 / deblock=1:-1:-1 / analyse=0x3:0x113 / me=umh / subme=9 / psy=1 / psy_rd=1.00:0.15 / mixed_ref=1 / me_range=16 / chroma_me=1 / trellis=2 / 8x8dct=1 / cqm=0 / deadzone=21,11 / fast_pskip=1 / chroma_qp_offset=-3 / threads=3 / sliced_threads=0 / nr=0 / decimate=1 / interlaced=0 / constrained_intra=0 / bframes=6 / b_pyramid=2 / b_adapt=2 / b_bias=0 / direct=3 / weightb=1 / open_gop=0 / weightp=2 / keyint=250 / keyint_min=23 / scenecut=40 / intra_refresh=0 / rc_lookahead=60 / rc=crf / mbtree=1 / crf=18.0 / qcomp=0.70 / qpmin=1 / qpmax=51 / qpstep=4 / ip_ratio=1.40 / aq=1:1.00
Audio #1
ID : 2
Format : AC-3
Format/Info : Audio Coding 3
Mode extension : CM (complete main)
Codec ID : A_AC3
Duration : 1h 16mn
Bit rate mode : Constant
Bit rate : 640 Kbps
Channel(s) : 6 channels
Channel positions : Front: L C R, Side: L R, LFE
Sampling rate : 48.0 KHz
Bit depth : 16 bits
Compression mode : Lossy
Stream size : 351 MiB (4%)
Title : MVO - Tycoon
Language : Russian
Audio #2
ID : 3
Format : AC-3
Format/Info : Audio Coding 3
Mode extension : CM (complete main)
Codec ID : A_AC3
Duration : 1h 16mn
Bit rate mode : Constant
Bit rate : 448 Kbps
Channel(s) : 6 channels
Channel positions : Front: L C R, Side: L R, LFE
Sampling rate : 48.0 KHz
Bit depth : 16 bits
Compression mode : Lossy
Stream size : 246 MiB (3%)
Title : Дубляж
Language : Russian
Audio #3
ID : 4
Format : AC-3
Format/Info : Audio Coding 3
Mode extension : CM (complete main)
Codec ID : A_AC3
Duration : 1h 16mn
Bit rate mode : Constant
Bit rate : 384 Kbps
Channel(s) : 6 channels
Channel positions : Front: L C R, Side: L R, LFE
Sampling rate : 48.0 KHz
Bit depth : 16 bits
Compression mode : Lossy
Stream size : 210 MiB (2%)
Title : MVO - НТВ+
Language : Russian
Audio #4
ID : 5
Format : AC-3
Format/Info : Audio Coding 3
Mode extension : CM (complete main)
Codec ID : A_AC3
Duration : 1h 16mn
Bit rate mode : Constant
Bit rate : 640 Kbps
Channel(s) : 6 channels
Channel positions : Front: L C R, Side: L R, LFE
Sampling rate : 48.0 KHz
Bit depth : 16 bits
Compression mode : Lossy
Stream size : 351 MiB (4%)
Menu
00:00:00.000 : :01
00:01:19.496 : :02
00:06:22.299 : :03
00:14:09.932 : :04
00:20:53.210 : :05
00:26:16.325 : :06
00:30:44.342 : :07
00:35:35.050 : :08
00:38:45.532 : :09
00:41:21.479 : :10
00:45:43.157 : :11
00:48:35.329 : :12
00:51:09.942 : :13
00:53:28.747 : :14
00:55:13.227 : :15
01:00:14.152 : :16
01:02:02.928 : :17
01:05:05.443 : :18
01:09:16.611 : :19
01:11:52.642 : :20

Скриншоты

Благодарности релизеру (9)

Торрент:

Статус:

Размер:

Зарегистрирован   [ 2011-09-11 23:52 ]

проверено

8.23 GB