Торренты   
 
 

 

Ролики для сравнения вертикальных и горизонтального анаморфов [Anamorph OverUnder и SideBySyde]

Рейтинг 3D:
19 голосов
7.4
Рейтинг фильма:
16 голосов
7.2
 
Вы должны быть авторизированы,
чтобы ставить оценки


Ролики для сравнения вертикальных и горизонтального анаморфовЖанр: Тест
Описание: Так что же всё-таки лучше - вертикальный или горизонтальный анаморф???
Доп.информация: Ролик, закодированный тремя вариантами с абсолютно одинаковыми параметрами кодирования:

1. Вертикальная стереопара. Ресайз сделан путём интерлейса (SeparateFields.SelectEven+Odd; AssumeFrameBased).
2. Вертикальная стереопара. Ресайз сделан с помощью LanczosResize.
3. Горизонтальная стереопара. Ресайз сделан с помощью LanczosResize.
Формат 3d: Anamorph OverUnder + SideBySide

MediaInfo первого файла - остальные практически идентичны.

General
UniqueID : 180802584580543142317866740379443584865 (0x88054FA89DB845D0BAD8E8FC4FCCDF61)
Complete name : F:\Downloads\Ролики для сравнения верт и гориз\OU-Interlace.mkv
Format : Matroska
File size : 439 MiB
Duration : 2mn 31s
Overall bit rate : 24.3 Mbps
Encoded date : UTC 2011-09-12 17:32:05
Writing application : mkvmerge v3.4.0 ('Rapunzel') сборка от May 15 2010 09:38:20
Writing library : libebml v0.8.0 + libmatroska v0.9.0
Video
ID : 1
Format : AVC
Format/Info : Advanced Video Codec
Format profile : High@L4.1
Format settings, CABAC : Yes
Format settings, ReFrames : 4 frames
Format settings, GOP : M=1, N=16
Codec ID : V_MPEG4/ISO/AVC
Duration : 2mn 31s
Bit rate : 23.6 Mbps
Width : 1 920 pixels
Height : 1 080 pixels
Display aspect ratio : 16:9
Frame rate : 23.976 fps
Color space : YUV
Chroma subsampling : 4:2:0
Bit depth : 8 bits
Scan type : Progressive
Bits/(Pixel*Frame) : 0.474
Stream size : 425 MiB (97%)
Writing library : x264 core 113 r1884 7313bb5
Encoding settings : cabac=1 / ref=4 / deblock=1:-3:-3 / analyse=0x3:0x113 / me=umh / subme=9 / psy=1 / psy_rd=1.00:0.15 / mixed_ref=1 / me_range=16 / chroma_me=1 / trellis=2 / 8x8dct=1 / cqm=0 / deadzone=21,11 / fast_pskip=1 / chroma_qp_offset=-3 / threads=3 / sliced_threads=0 / nr=0 / decimate=1 / interlaced=0 / constrained_intra=0 / bframes=6 / b_pyramid=2 / b_adapt=2 / b_bias=0 / direct=3 / weightb=1 / open_gop=0 / weightp=2 / keyint=250 / keyint_min=23 / scenecut=40 / intra_refresh=0 / rc_lookahead=60 / rc=crf / mbtree=1 / crf=18.0 / qcomp=0.70 / qpmin=1 / qpmax=51 / qpstep=4 / ip_ratio=1.40 / aq=1:1.00
Audio
ID : 2
Format : AC-3
Format/Info : Audio Coding 3
Mode extension : CM (complete main)
Codec ID : A_AC3
Duration : 2mn 31s
Bit rate mode : Constant
Bit rate : 256 Kbps
Channel(s) : 2 channels
Channel positions : Front: L R
Sampling rate : 48.0 KHz
Bit depth : 16 bits
Compression mode : Lossy
Stream size : 4.62 MiB (1%)

Скриншоты

1 2 3

Прошу высказывать свои мнения!!!
Благодарности релизеру (29)

Торрент:

Статус:

Размер:

Зарегистрирован   [ 2011-09-12 23:13 ]

проверено

1.22 GB