Торренты   
 
 

 

Winx Club: Волшебное приключение 3D / Winx Club 3D: Magic Adventure (Иджинио Страффи) [2010 г., Anamorph SideBySide]

Рейтинг 3D:
6 голосов
7.3
Рейтинг фильма:
6 голосов
8.0
 
Вы должны быть авторизированы,
чтобы ставить оценки


Winx Club: Волшебное приключение 3D / Winx Club 3D: Magic Adventure
Год выпуска: 2010
Страна: Италия
Жанр: Приключения, Мультфильм, Романтическое, Семейное, Детское, Фэнтези
Продолжительность: 01:27:24
Перевод: Профессиональный (полное дублирование)
Режиссер: Иджинио Страффи
Описание: Для Блум нелегко быть принцессой планеты Домино, а тем более королевой! Ей нужно принимать сложные решения, решать вопросы, и 2 пары родителей всегда поддерживают ее. Сможет ли Блум устоять перед соблазном принять титул королевы или же скромность заставит ее отказаться?.. Какое решение не примет Блум, она всегда может рассчитывать на поддержку, родных, Ская и клуба Винкс. Скай делает Блум предложение руки и сердца, но отец принца запрещает брак, открывая Блум темную тайну. Феи из клуба Винкс с помощью специалистов смогут преодолеть все преграды и спасти королевство Ская.
Формат 3d: Anamorph SideBySide
Порядок ракурсов: Параллельная пара

Скриншоты

MediaInfo

General
Format : Matroska
File size : 6.23 GiB
Duration : 1h 27mn
Overall bit rate : 10.2 Mbps
Encoded date : UTC 2011-09-13 16:33:41
Writing application : mkvmerge v4.4.0 ('Die Wiederkehr') сборка от Oct 31 2010 21:52:48
Writing library : libebml v1.0.0 + libmatroska v1.0.0
Video
ID : 1
Format : AVC
Format/Info : Advanced Video Codec
Format profile : High@L4.1
Format settings, CABAC : Yes
Format settings, ReFrames : 4 frames
Muxing mode : Container profile=Unknown@0.0
Codec ID : V_MPEG4/ISO/AVC
Duration : 1h 27mn
Bit rate : 9 358 Kbps
Width : 1 920 pixels
Height : 1 080 pixels
Display aspect ratio : 16:9
Frame rate : 23.976 fps
Color space : YUV
Chroma subsampling : 4:2:0
Bit depth : 8 bits
Scan type : Progressive
Bits/(Pixel*Frame) : 0.188
Stream size : 5.71 GiB (92%)
Title : Winx.Club.Magic.Adventure.3D.2010.H-SBS.DTS.z-man.The3DTeam
Audio
ID : 2
Format : AC-3
Format/Info : Audio Coding 3
Mode extension : CM (complete main)
Codec ID : A_AC3
Duration : 1h 27mn
Bit rate mode : Constant
Bit rate : 640 Kbps
Channel(s) : 6 channels
Channel positions : Front: L C R, Side: L R, LFE
Sampling rate : 48.0 KHz
Bit depth : 16 bits
Compression mode : Lossy
Stream size : 400 MiB (6%)
Credits to EX-3DBLURAYISO TEAM
Благодарности релизеру (9)

Торрент:

Статус:

Размер:

Зарегистрирован   [ 2011-09-13 21:02 ]

проверено

6.23 GB

 
 Мнение о фильме (3)





Спасибо большое! Дочери и её подругам очень понравилось!
 

3D в этом мульте хорошее. Дочке очень понравилось
 

Все в восторге.
А вот еще бы Монстров Хейерс в 3d /