Торренты   
 
 


Ледниковый период 3: Эра динозавров / Ice Age: Dawn of the Dinosaurs (Карлос Салдана / Carlos Saldanha, Майк Трумейер / Mike Thurmeier) [2009 г., Anamorph SideBySide]

Рейтинг 3D:
Пока никто не голосовал
Рейтинг фильма:
Пока никто не голосовал
 
Вы должны быть авторизированы,
чтобы ставить оценки


Ледниковый период 3: Эра динозавров / Ice Age: Dawn of the Dinosaurs
Год выпуска: 2009
Страна: США
Жанр: комедия, приключения, семейный, мультфильм
Продолжительность: 1:34:01
Перевод: Профессиональный (полное дублирование)
Режиссер: Карлос Салдана / Carlos Saldanha, Майк Трумейер / Mike Thurmeier
В ролях: Джон Легуизамо, Куин Латифа, Денис Лири, Саймон Пегг, Джош Пек, Рэй Романо, Шонн Уильям Скотт, Карен Дишер, Крис Уэдж, Юнис Чо
Описание: К событиям «Ледникового периода 3» жизнь главных героев мультфильма потерпела некоторые изменения. Мамонты Манфред и Элли ожидают появление на свет своего детёныша; саблезубый тигр Диего впал в раздумье о том, не стал ли он слишком «мягкотелым» в компании своих друзей; ленивец Сид, бредя желанием создать собственное племя, решился украсть несколько яиц динозавра. Отправившись спасать Сида, друзья попадают в таинственный растительный мир, скрытый под толщами льда, где они сталкиваются с динозаврами и агрессивной окружающей средой, а так же знакомятся с охотником на динозавров — лаской по имени Бак.
Формат 3d: Anamorph SideBySide
Порядок ракурсов: Параллельная пара
Видео: 18,9 Мбит/сек, 1920*1080 (16:9), at 23,976 кадра/сек, AVC (High@L5.1)
Аудио1: Russian, 755 Кбит/сек, 48,0 КГц, 24 бит, 6 каналов, DTS
Аудио2: English, 2305/1510 Кбит/сек, 48,0 КГц, 16 бит, 8 каналов / 6 каналов, DTS (MA / Core)
Субтитры:Русские, Английские

MediaInfo

Полное имя : ICEAGE3_3D.mkv
Формат : Matroska
Версия формата : Version 1
Размер файла : 14,7 Гбайт
Продолжительность : 1 ч. 34 м.
Общий поток : 22,4 Мбит/сек
Дата кодирования : UTC 2011-09-17 12:56:58
Программа кодирования : mkvmerge v2.4.2 ('Oh My God') built on Jan 18 2009 17:30:28
Библиотека кодирования : libebml v0.7.7 + libmatroska v0.8.1
Видео
Идентификатор : 1
Формат : AVC
Формат/Информация : Advanced Video Codec
Профиль формата : High@L5.1
Параметр CABAC формата : Да
Параметр ReFrames формата : 2 кадра
Параметр GOP формата : M=3, N=15
Идентификатор кодека : V_MPEG4/ISO/AVC
Продолжительность : 1 ч. 34 м.
Вид битрейта : Переменный
Битрейт : 18,9 Мбит/сек
Максимальный битрейт : 28,5 Мбит/сек
Ширина : 1920 пикселей
Высота : 1080 пикселей
Соотношение сторон : 16:9
Частота кадров : 23,976 кадра/сек
Цветовое пространство : YUV
Субдискретизация насыщенности : 4:2:0
Битовая глубина : 8 бит
Тип развёртки : Прогрессивная
Бит/(Пиксели*Кадры) : 0.379
Размер потока : 12,4 Гбайт (84%)
Язык : English
Аудио #1
Идентификатор : 2
Формат : DTS
Формат/Информация : Digital Theater Systems
Идентификатор кодека : A_DTS
Продолжительность : 1 ч. 34 м.
Вид битрейта : Постоянный
Битрейт : 755 Кбит/сек
Каналы : 6 каналов
Расположение каналов : Front: L C R, Side: L R, LFE
Частота : 48,0 КГц
Битовая глубина : 24 бит
Метод сжатия : С потерями
Размер потока : 507 Мбайт (3%)
Язык : Russian
Аудио #2
Идентификатор : 3
Формат : DTS
Формат/Информация : Digital Theater Systems
Профиль формата : MA / Core
Идентификатор кодека : A_DTS
Продолжительность : 1 ч. 34 м.
Вид битрейта : Переменный
Битрейт : 2305 Кбит/сек / 1510 Кбит/сек
Каналы : 8 каналов / 6 каналов
Расположение каналов : Front: L C R, Side: L R, Back: L R, LFE / Front: L C R, Side: L R, LFE
Частота : 48,0 КГц
Битовая глубина : 16 бит
Метод сжатия : Без потерь / Lossy
Язык : English
Текст #1
Идентификатор : 4
Формат : UTF-8
Идентификатор кодека : S_TEXT/UTF8
Идентификатор кодека/Информация : UTF-8 Plain Text
Язык : Russian
Текст #2
Идентификатор : 5
Формат : UTF-8
Идентификатор кодека : S_TEXT/UTF8
Идентификатор кодека/Информация : UTF-8 Plain Text
Язык : English

Скриншоты



Благодарности релизеру (1)

Торрент:

Статус:

Размер:

Зарегистрирован   [ 2011-09-19 14:27 ]

© закрыто правообладателем

14.69 GB