Торренты   
 
 

 

Король Лев / The Lion King [1994г, 1080p, BDrip, OverUnder]

Рейтинг 3D:
7 голосов
7.2
Рейтинг фильма:
9 голосов
9.7
 
Вы должны быть авторизированы,
чтобы ставить оценки


© закрыто правообладателем
Король Лев
The Lion King

Год выпуска: 1994
Страна: США (Walt Disney Pictures)
Жанр: Мультфильм, Мюзикл, Драма, Комедия, Приключения,
Семейный
Продолжительность: 01:28:49
Перевод: Профессиональный (полное дублирование)
+ двухголосый закадровый (П.Гланц и Н.Казакова)
+ одноголосый закадровый (А.Гаврилов (ранний))
Режиссеры: Роджер Аллерс, Роб Минкофф / Roger Allers,
Rob MinkoffРоли дублировали / озвучивали:Симба (взрослый) - Евгений Иванов / Мэттью Бродерик
Муфаса - Валерий Никитенко / Джеймс Эрл Джонс
Тимон - Сергей Дьячков, Сергей Савченко (вокал) / Натан
Лейн
Пумба - Раф Кашапов, Андрей Шамин (вокал) / Эрни Сабелла
Нала (взрослая) - Татьяна Михалевкина / Мойра Келли
Шрам - Юрий Лазарев / Джереми Айронс
Зазу - Георгий Корольчук / Роуэн Эткинсон
Шензи - Татьяна Рассказова / Вупи Голдберг
Банзай - Валерий Захарьев / Чич Марин
Рафики - Игорь Шибанов / Роберт Гийом
Сараби - Александра Кожевникова / Мэдж Синклер
Описание: У величественного Короля-Льва Муфасы рождается наследник по имени Симба. Уже в детстве любознательный малыш становится жертвой интриг своего завистливого дяди Шрама, мечтающего о власти.
Симба познаёт горе утраты, предательство и изгнание, но в конце концов обретает верных друзей и находит любимую. Закалённый испытаниями, он в нелёгкой борьбе отвоёвывает своё законное место в «Круге жизни», осознав, что значит быть настоящим Королём. На встроенных плейерах ТВ не будет работать!!!
Формат 3d:
OverUnder
Качество: BDrip
Контейнер: MKV
Видео: AVC / 1920х2160p / 23,976 fps / 8 783 Kbps
Аудио#1: Русский / AC3 / 48 KHz / 5.1 ch / 448 Kbps (Дубляж)
Аудио#2: Русский / AC3 / 48 KHz / 5.1 ch / 640 Kbps (П.Гланц и Н.Казакова)
Аудио#3: Русский / AC3 / 48 KHz / 5.1 ch / 448 Kbps (А.Гаврилов (ранний))
Аудио#4: Английский / AC3 / 48 KHz / 5.1 ch / 640 Kbps

MediaInfo

General
UniqueID : 172653893047618505682738455880504112572 (0x81E3EE25C06A006F98264DDE93C6F5BC)
Complete name : F:\Downloads\TheLionKing3D.1080p.OU.AC3.ash61.mkv
Format : Matroska
File size : 6.94 GiB
Duration : 1h 28mn
Overall bit rate : 11.2 Mbps
Movie name : The Lion King (ash61)
Encoded date : UTC 2011-09-19 09:47:26
Writing application : mkvmerge v3.4.0 ('Rapunzel') сборка от May 15 2010 09:38:20
Writing library : libebml v0.8.0 + libmatroska v0.9.0
Video
ID : 1
Format : AVC
Format/Info : Advanced Video Codec
Format profile : High@L5.0
Format settings, CABAC : Yes
Format settings, ReFrames : 5 frames
Codec ID : V_MPEG4/ISO/AVC
Duration : 1h 28mn
Bit rate : 8 783 Kbps
Width : 1 920 pixels
Height : 2 160 pixels
Display aspect ratio : 0.889
Frame rate : 23.976 fps
Color space : YUV
Chroma subsampling : 4:2:0
Bit depth : 8 bits
Scan type : Progressive
Bits/(Pixel*Frame) : 0.088
Stream size : 5.45 GiB (79%)
Title : Rip by ash61
Writing library : x264 core 113 r1884 7313bb5
Encoding settings : cabac=1 / ref=5 / deblock=1:-1:-1 / analyse=0x3:0x113 / me=umh / subme=9 / psy=1 / psy_rd=1.00:0.15 / mixed_ref=1 / me_range=16 / chroma_me=1 / trellis=2 / 8x8dct=1 / cqm=0 / deadzone=21,11 / fast_pskip=1 / chroma_qp_offset=-3 / threads=3 / sliced_threads=0 / nr=0 / decimate=1 / interlaced=0 / constrained_intra=0 / bframes=6 / b_pyramid=2 / b_adapt=2 / b_bias=0 / direct=3 / weightb=1 / open_gop=0 / weightp=2 / keyint=250 / keyint_min=23 / scenecut=40 / intra_refresh=0 / rc_lookahead=40 / rc=crf / mbtree=1 / crf=19.0 / qcomp=0.60 / qpmin=10 / qpmax=51 / qpstep=4 / ip_ratio=1.40 / aq=1:1.00
Audio #1
ID : 2
Format : AC-3
Format/Info : Audio Coding 3
Mode extension : CM (complete main)
Codec ID : A_AC3
Duration : 1h 28mn
Bit rate mode : Constant
Bit rate : 448 Kbps
Channel(s) : 6 channels
Channel positions : Front: L C R, Side: L R, LFE
Sampling rate : 48.0 KHz
Bit depth : 16 bits
Compression mode : Lossy
Stream size : 285 MiB (4%)
Title : Дубляж (edit by ash61)
Language : Russian
Audio #2
ID : 3
Format : AC-3
Format/Info : Audio Coding 3
Mode extension : CM (complete main)
Codec ID : A_AC3
Duration : 1h 28mn
Bit rate mode : Constant
Bit rate : 640 Kbps
Channel(s) : 6 channels
Channel positions : Front: L C R, Side: L R, LFE
Sampling rate : 48.0 KHz
Bit depth : 16 bits
Compression mode : Lossy
Stream size : 407 MiB (6%)
Title : DVO - П.Гланц и Н.Казакова
Language : Russian
Audio #3
ID : 4
Format : AC-3
Format/Info : Audio Coding 3
Mode extension : CM (complete main)
Codec ID : A_AC3
Duration : 1h 28mn
Bit rate mode : Constant
Bit rate : 448 Kbps
Channel(s) : 6 channels
Channel positions : Front: L C R, Side: L R, LFE
Sampling rate : 48.0 KHz
Bit depth : 16 bits
Compression mode : Lossy
Stream size : 285 MiB (4%)
Title : AVO - А.Гаврилов
Language : Russian
Audio #4
ID : 5
Format : AC-3
Format/Info : Audio Coding 3
Mode extension : CM (complete main)
Codec ID : A_AC3
Duration : 1h 28mn
Bit rate mode : Constant
Bit rate : 640 Kbps
Channel(s) : 6 channels
Channel positions : Front: L C R, Side: L R, LFE
Sampling rate : 48.0 KHz
Bit depth : 16 bits
Compression mode : Lossy
Stream size : 407 MiB (6%)
Language : English
Menu
00:00:00.000 : :01
00:05:00.592 : :02
00:08:30.927 : :03
00:11:49.500 : :04
00:14:30.078 : :05
00:18:11.549 : :06
00:23:15.269 : :07
00:25:56.638 : :08
00:30:44.718 : :09
00:36:12.670 : :10
00:40:34.599 : :11
00:41:34.951 : :12
00:44:37.466 : :13
00:48:41.085 : :14
00:50:27.733 : :15
00:53:35.295 : :16
00:58:11.363 : :17
01:01:17.090 : :18
01:02:52.852 : :19
01:09:10.146 : :20
01:13:01.544 : :21
01:17:02.827 : :22
01:21:05.652 : :23
01:23:44.394 : :24

Скриншоты

Благодарности релизеру (8)

Торрент:

Статус:

Размер:

Зарегистрирован   [ 2011-09-19 15:51 ]

© закрыто правообладателем

6.94 GB