Торренты   
 
 

 

Красавица и чудовище 3D / Beauty and the Beast 3D (Гари Труздейл) [1991 г., Anamorph SideBySide]

Рейтинг 3D:
6 голосов
8.7
Рейтинг фильма:
8 голосов
9.0
 
Вы должны быть авторизированы,
чтобы ставить оценки


Красавица и чудовище 3D / Beauty and the Beast 3D
Год выпуска: 1991
Страна: США
Жанр: Мультфильм, Семейный, Фэнтези, Мелодрама, Мюзикл
Продолжительность: 01:24:54
Перевод: Профессиональный (полное дублирование)
Режиссер: Гари Труздейл
В ролях: Пейдж О`Хара, Робби Бенсон, Ричард Уайт, Джерри Орбак, Дэвид Огден Стайерз, Анджела Лэнсбери, Брэдли Пирс, Рекс Эверхарт, Джесси Корти, Хэл Смит
Описание: Фильм приглашает в зачарованный замок, скрытый в чаще тёмного волшебного леса. Его хозяин - ужасное Чудовище, которого все боятся и ненавидят. Лишь самая прекрасная и смелая девушка в мире, по имени Белль, способна разгадать тайну страшного, а на самом деле, очень несчастного хозяина замка, и разрушить чары, обрекшие его на вечное пребывание в шкуре жуткого зверя.
Только тот, кто растопит лёд в сердце чудовища и сможет полюбить его таким, какой он есть, сможет вернуть ему человеческий облик, но, чтобы спасти хозяина зачарованного замка, Белль придётся выступить против всех: ведь жители её деревни, подстрекаемые злобным охотником Гастоном, хотят погубить гордое и доброе Чудовище...
Формат 3d: Anamorph SideBySide
Порядок ракурсов: Параллельная пара

Скриншоты

MediaInfo

General
Format : Matroska
File size : 6.15 GiB
Duration : 1h 24mn
Overall bit rate : 10.4 Mbps
Movie name : Beauty And The Beast - 3D4U - EX-3DBlurayIsoTeam
Encoded date : UTC 2011-07-21 07:29:43
Writing application : mkvmerge v4.4.0 ('Die Wiederkehr') сборка от Oct 31 2010 21:52:48
Writing library : libebml v1.0.0 + libmatroska v1.0.0
Video
ID : 1
Format : AVC
Format/Info : Advanced Video Codec
Format profile : High@L4.1
Format settings, CABAC : Yes
Format settings, ReFrames : 2 frames
Codec ID : V_MPEG4/ISO/AVC
Duration : 1h 24mn
Bit rate : 9 781 Kbps
Width : 1 920 pixels
Height : 1 070 pixels
Display aspect ratio : 16:9
Frame rate : 23.976 fps
Color space : YUV
Chroma subsampling : 4:2:0
Bit depth : 8 bits
Scan type : Progressive
Bits/(Pixel*Frame) : 0.199
Stream size : 5.80 GiB (94%)
Writing library : x264 core
Language : English
Color primaries : BT.709-5, BT.1361, IEC 61966-2-4, SMPTE RP177
Transfer characteristics : BT.709-5, BT.1361
Matrix coefficients : BT.709-5, BT.1361, IEC 61966-2-4 709, SMPTE RP177
Audio
ID : 2
Format : AC-3
Format/Info : Audio Coding 3
Mode extension : CM (complete main)
Codec ID : A_AC3
Duration : 1h 24mn
Bit rate mode : Constant
Bit rate : 384 Kbps
Channel(s) : 6 channels
Channel positions : Front: L C R, Side: L R, LFE
Sampling rate : 48.0 KHz
Bit depth : 16 bits
Compression mode : Lossy
Stream size : 233 MiB (4%)
A Very Special Thanks To 3D4ALL And The EX-BLURAYISOTEAM For This Early Release
СЭМПЛ
Благодарности релизеру (13)

Торрент:

Статус:

Размер:

Зарегистрирован   [ 2011-09-20 18:30 ]

проверено

6.15 GB