Торренты   
 
 

 

Красавица и чудовище / Beauty and the Beast [1991г, 1080p, BDrip, Anamorph OverUnder]

Рейтинг 3D:
7 голосов
8.7
Рейтинг фильма:
6 голосов
8.5
 
Вы должны быть авторизированы,
чтобы ставить оценки


Красавица и чудовище
Beauty and the Beast

Год выпуска: 1991
Страна: США (Walt Disney Pictures)
Жанр: Мультфильм, Мюзикл, Фэнтези, Мелодрама, Семейный
Продолжительность: 01:24:53
Перевод: Профессиональный (полное дублирование)
+ двухголосый закадровый (П.Гланц и И.Королёва)
+ одноголосый закадровый (А.Гаврилов)
Режиссеры: Гари Труздейл, Кирк Уайз / Gary Trousdale, Kirk
WiseРоли дублировали / Озвучивали:Рассказчик - Валерий Никитенко / David Ogden Stiers
Бэлль - Сауле Искакова / Paige O'Hara
Чудовище - Олег Куликович, Александр Никифоров (вокал) /
Robby Benson
Гастон - Андрей Тенетко / Richard White
Люмьер - Виктор Костецкий / Jerry Orbach
Когсуорт - Игорь Шибанов / David Ogden Stiers
Миссис Поттс - Елена Дриацкая / Angela Lansbury
Чип - Артем Сергеев / Bradley Pierce
Морис - Николай Федорцов / Rex Everhart
Лефу - Андрей Матвеев / Jesse Corti
.................
Описание: Фильм приглашает в зачарованный замок, скрытый в чаще темного волшебного леса. Его хозяин ужасное Чудовище, которого все боятся и ненавидят. Лишь самая прекрасная и смелая девушка в мире по имени Белль способна разгадать тайну страшного, а на самом деле, очень несчастного хозяина замка и разрушить чары, обрекшие его на вечное пребывание в шкуре жуткого зверя.
Только тот, кто растопит лед в сердце чудовища и сможет полюбить его таким, какой он есть, сможет вернуть ему человеческий облик, но, чтобы спасти хозяина зачарованного замка, Белль придется выступить против всех: ведь жители ее деревни, подстрекаемые злобным охотником Гастоном, хотят погубить гордое и доброе Чудовище…Проверено на встроенном плейере ТВ Samsung UE-C7000 Формат 3d: Anamorph OverUnder
Качество: BDrip
Контейнер: MKV
Видео: AVC / 1920х1080p / 23,976 fps / 9 660 Kbps
Аудио#1: Русский / AC3 / 48 KHz / 5.1 ch / 384 Kbps (Дубляж)
Аудио#2: Русский / AC3 / 48 KHz / 5.1 ch / 640 Kbps (П.Гланц и И.Королёва)
Аудио#3: Русский / AC3 / 48 KHz / 5.1 ch / 640 Kbps (А.Гаврилов)
Аудио#4: Английский / AC3 / 48 KHz / 5.1 ch / 640 Kbps

MediaInfo

General
UniqueID : 175778576975172250040355033272304242601 (0x843DB8F59E168220A46F6332A3038FA9)
Complete name : F:\Downloads\BeautyAndTheBeast3D.halfOU.AC3.ash61.mkv
Format : Matroska
File size : 7.24 GiB
Duration : 1h 24mn
Overall bit rate : 12.2 Mbps
Movie name : Beauty and the Beast (ash61)
Encoded date : UTC 2011-09-24 12:12:49
Writing application : mkvmerge v3.4.0 ('Rapunzel') сборка от May 15 2010 09:38:20
Writing library : libebml v0.8.0 + libmatroska v0.9.0
Video
ID : 1
Format : AVC
Format/Info : Advanced Video Codec
Format profile : High@L4.1
Format settings, CABAC : Yes
Format settings, ReFrames : 4 frames
Format settings, GOP : M=6, N=9
Codec ID : V_MPEG4/ISO/AVC
Duration : 1h 24mn
Bit rate : 9 660 Kbps
Width : 1 920 pixels
Height : 1 080 pixels
Display aspect ratio : 16:9
Frame rate : 23.976 fps
Color space : YUV
Chroma subsampling : 4:2:0
Bit depth : 8 bits
Scan type : Progressive
Bits/(Pixel*Frame) : 0.194
Stream size : 5.73 GiB (79%)
Title : Rip by ash61
Writing library : x264 core 113 r1884 7313bb5
Encoding settings : cabac=1 / ref=4 / deblock=1:-3:-3 / analyse=0x3:0x113 / me=umh / subme=9 / psy=1 / psy_rd=1.00:0.15 / mixed_ref=1 / me_range=16 / chroma_me=1 / trellis=2 / 8x8dct=1 / cqm=0 / deadzone=21,11 / fast_pskip=1 / chroma_qp_offset=-3 / threads=3 / sliced_threads=0 / nr=0 / decimate=1 / interlaced=0 / constrained_intra=0 / bframes=6 / b_pyramid=2 / b_adapt=2 / b_bias=0 / direct=3 / weightb=1 / open_gop=0 / weightp=2 / keyint=250 / keyint_min=23 / scenecut=40 / intra_refresh=0 / rc_lookahead=60 / rc=crf / mbtree=1 / crf=18.0 / qcomp=0.70 / qpmin=1 / qpmax=51 / qpstep=4 / ip_ratio=1.40 / aq=1:1.00
Audio #1
ID : 2
Format : AC-3
Format/Info : Audio Coding 3
Mode extension : CM (complete main)
Codec ID : A_AC3
Duration : 1h 24mn
Bit rate mode : Constant
Bit rate : 384 Kbps
Channel(s) : 6 channels
Channel positions : Front: L C R, Side: L R, LFE
Sampling rate : 48.0 KHz
Bit depth : 16 bits
Compression mode : Lossy
Video delay : 12ms
Stream size : 233 MiB (3%)
Title : Дубляж
Language : Russian
Audio #2
ID : 3
Format : AC-3
Format/Info : Audio Coding 3
Mode extension : CM (complete main)
Codec ID : A_AC3
Duration : 1h 24mn
Bit rate mode : Constant
Bit rate : 640 Kbps
Channel(s) : 6 channels
Channel positions : Front: L C R, Side: L R, LFE
Sampling rate : 48.0 KHz
Bit depth : 16 bits
Compression mode : Lossy
Video delay : 12ms
Stream size : 389 MiB (5%)
Title : DVO - П.Гланц и И.Королёва
Language : Russian
Audio #3
ID : 4
Format : AC-3
Format/Info : Audio Coding 3
Mode extension : CM (complete main)
Codec ID : A_AC3
Duration : 1h 24mn
Bit rate mode : Constant
Bit rate : 640 Kbps
Channel(s) : 6 channels
Channel positions : Front: L C R, Side: L R, LFE
Sampling rate : 48.0 KHz
Bit depth : 16 bits
Compression mode : Lossy
Video delay : 12ms
Stream size : 389 MiB (5%)
Title : AVO - А.Гаврилов
Language : Russian
Audio #4
ID : 5
Format : AC-3
Format/Info : Audio Coding 3
Mode extension : CM (complete main)
Codec ID : A_AC3
Duration : 1h 24mn
Bit rate mode : Constant
Bit rate : 640 Kbps
Channel(s) : 6 channels
Channel positions : Front: L C R, Side: L R, LFE
Sampling rate : 48.0 KHz
Bit depth : 16 bits
Compression mode : Lossy
Stream size : 389 MiB (5%)
Language : English
Menu
00:00:00.000 : :01
00:03:23.286 : :02
00:08:25.380 : :03
00:13:51.497 : :04
00:17:34.095 : :05
00:20:54.420 : :06
00:25:34.783 : :07
00:27:05.332 : :08
00:34:59.389 : :09
00:38:29.390 : :10
00:43:51.337 : :11
00:49:26.172 : :12
00:51:58.615 : :13
00:54:00.362 : :14
00:57:35.661 : :15
01:04:10.972 : :16
01:05:56.870 : :17
01:08:50.877 : :18
01:11:43.799 : :19
01:16:17.323 : :20
01:20:28.991 : :21

Скриншоты

24.09.2011 - Релиз обновлён - горизонтальный ФАБ-рип заменён на вертикальный "правильный" и заменены аудиодорожки. Прошу скачать заново торрент-файл!
Благодарности релизеру (22)

Торрент:

Статус:

Размер:

Зарегистрирован   [ 2011-09-24 17:25 ]

проверено

7.24 GB