Торренты   
 
 


Бугай / Boogie, el aceitoso (Густаво Кова) [2009 г.,BDRip 1080p, Full OverUnder]

Рейтинг 3D:
Пока никто не голосовал
Рейтинг фильма:
Пока никто не голосовал
 
Вы должны быть авторизированы,
чтобы ставить оценки


Бугай / Boogie, el aceitoso
Год выпуска: 2009
Страна: Мексика, Аргентина
Жанр: Мультфильм, Боевик, Криминал
Продолжительность: 01:25:37
Перевод: Профессиональный (полное дублирование)
Режиссер: Густаво Кова
В ролях: Пабло Эчарри, Нэнси Дуплаа, Николас Фриас, Марсело Арман, Руфино Галло, Диего Брицци, Рикардо Эланис, Лучана Фалькон, Карин Сабала, Эрнан Чьёзза
ДубляжГоша Куценко, Елена Дробышева, Михаил Горевой, Павел Кипнис, Алексей Шатхин, Александр Новиков, Ольга Голованова, Елена Муромцева
Описание: Киллер по прозвищу Бугай начал свою карьеру во Вьетнаме, убивал черных повстанцев в Южной Африке, мочил красных в Никаргуа, глотал песок в Афганистане и Ираке. Он был на всех гребаных войнах за последние 30 лет! Раньше он убивал во имя демократии, теперь убивает за бабос!
Этот заказ должен был стать последним — убрать бывшую телку Сонни Калабриа, дона всех донов, главы мафии в Америке, которую ФБР развело дать показания против него. Дело трудное и он попросил много — 500 кусков. Чтобы хватило надолго.
Но Сонни зажал бабки и нанял молодого киллера Блэкберна по кличке Человек-Каблук, который обещал отработать за половину и убрать Бугая до кучи, чтобы не возникло конфликта интересов. И тут Бугай конкретно напрягся! Теперь его цель — выкрасть свидетельницу, любой ценой привезти ее на суд и убить всех вокруг! На его пути вырастают горы трупов, кровь льется рекой и выбитые зубы свистят над головой.

Формат 3d: OverUnder
Видео: AVC, h264, 1920х2160, 23,976 кадр/сек, 15,9 Мбит/сек
Аудио: Rus, AC-3, 6 каналов, 448 Кбит/сек, 48,0 КГц
Аудио: Spa, AC-3, 6 каналов, 640 Кбит/сек, 48,0 КГц

Скриншоты




me

Общее
Уникальный идентификатор : 241857526703480164103486186197757957628 (0xB5F410B73278F866A067DB78CBCB95FC)
Полное имя : D:\_Stereo\BOOGIE 1080p.mkv
Формат : Matroska
Размер файла : 10,4 Гбайт
Продолжительность : 1 ч. 25 м.
Общий поток : 17,4 Мбит/сек
Дата кодирования : UTC 2011-09-11 05:35:27
Программа кодирования : mkvmerge v3.4.0 ('Rapunzel') сборка от May 15 2010 09:38:20
Библиотека кодирования : libebml v0.8.0 + libmatroska v0.9.0
Видео
Идентификатор : 1
Формат : AVC
Формат/Информация : Advanced Video Codec
Профиль формата : High@L5.0
Параметр CABAC формата : Да
Параметр ReFrames формата : 4 кадры
Идентификатор кодека : V_MPEG4/ISO/AVC
Продолжительность : 1 ч. 25 м.
Битрейт : 15,9 Мбит/сек
Ширина : 1920 пикс.
Высота : 2160 пикс.
Соотношение сторон : 0,889
Частота кадров : 23,976 кадр/сек
Цветовое пространство : YUV
Подвыборка цветности : 4:2:0
Битовая глубина : 8 бит
Тип развёртки : Прогрессивная
Бит/(Пиксели*Кадры) : 0.160
Размер потока : 9,53 Гбайт (92%)
Библиотека кодирования : x264 core 116 r2074 2641b9e
Настройки программы : cabac=1 / ref=4 / deblock=1:-2:-2 / analyse=0x3:0x113 / me=umh / subme=9 / psy=1 / psy_rd=1.00:0.00 / mixed_ref=1 / me_range=16 / chroma_me=1 / trellis=2 / 8x8dct=1 / cqm=0 / deadzone=21,11 / fast_pskip=1 / chroma_qp_offset=-3 / threads=9 / sliced_threads=0 / nr=0 / decimate=1 / interlaced=0 / bluray_compat=0 / constrained_intra=0 / bframes=6 / b_pyramid=0 / b_adapt=2 / b_bias=0 / direct=3 / weightb=1 / open_gop=0 / weightp=2 / keyint=250 / keyint_min=23 / scenecut=40 / intra_refresh=0 / rc_lookahead=40 / rc=crf / mbtree=1 / crf=18.0 / qcomp=0.60 / qpmin=0 / qpmax=69 / qpstep=4 / ip_ratio=1.40 / aq=1:1.00
Язык : English
Аудио #1
Идентификатор : 2
Формат : AC-3
Формат/Информация : Audio Coding 3
Расширение режима : CM (complete main)
Идентификатор кодека : A_AC3
Продолжительность : 1 ч. 25 м.
Вид битрейта : Постоянный
Битрейт : 448 Кбит/сек
Канал(ы) : 6 канала(ов)
Расположение каналов : Front: L C R, Side: L R, LFE
Частота : 48,0 КГц
Битовая глубина : 16 бит
Метод сжатия : С потерями
Размер потока : 274 Мбайт (3%)
Язык : Russian
Аудио #2
Идентификатор : 3
Формат : AC-3
Формат/Информация : Audio Coding 3
Расширение режима : CM (complete main)
Идентификатор кодека : A_AC3
Продолжительность : 1 ч. 25 м.
Вид битрейта : Постоянный
Битрейт : 640 Кбит/сек
Канал(ы) : 6 канала(ов)
Расположение каналов : Front: L C R, Side: L R, LFE
Частота : 48,0 КГц
Битовая глубина : 16 бит
Метод сжатия : С потерями
Размер потока : 392 Мбайт (4%)
Язык : Spanish
Скриншоты сравнения
Благодарности релизеру (0)

Торрент:

Статус:

Размер:

Зарегистрирован   [ 2011-09-21 12:41 ]

проверено

10.39 GB