Торренты   
 
 

 

Лабиринт страха / Senritsu meikyu (Такаши Шимицу) [2009 г., BDRip 1080p, Full OverUnder]

Рейтинг 3D:
2 голосов
8.0
Рейтинг фильма:
2 голосов
4.0
 
Вы должны быть авторизированы,
чтобы ставить оценки


Лабиринт страха / Senritsu meikyu
Год выпуска: 2009
Страна: Япония
Жанр: ужасы, триллер
Продолжительность: 01:28:51
Перевод: Профессиональный (многоголосый, закадровый)
Режиссер: Такаши Шимицу
В ролях: Ай Маэда, Юя Ягира, Сузуки Матсуо, Мисако Ренбуцу, Рио Кацудзи, Сойчиро Масумото, Эрина Мизуно
Описание: 10 лет назад компания одноклассников оставила Юки в «Лабиринте Страха», аттракционе местного Парка Развлечений. Спустя 10 лет она вернется за ними, чтобы отомстить…

Формат 3d: OverUnder
Видео: AVC, h264, 1920х2064, 23,976 кадр/сек, 32,1 Мбит/сек
Аудио: Russian, AC-3, 6 каналов, 640 Кбит/сек, 48,0 КГц
Аудио: Japanese, AC-3, 6 каналов, 640 Кбит/сек, 48,0 КГц

Скриншоты



me

Общее
Полное имя : SCHOCK LABYRINTH 1080p.mkv
Формат : Matroska
Размер файла : 21,2 Гбайт
Продолжительность : 1 ч. 28 м.
Общий поток : 34,1 Мбит/сек
Дата кодирования : UTC 2011-09-16 13:23:29
Программа кодирования : mkvmerge v3.4.0 ('Rapunzel') сборка от May 15 2010 09:38:20
Библиотека кодирования : libebml v0.8.0 + libmatroska v0.9.0
Видео
Идентификатор : 1
Формат : AVC
Формат/Информация : Advanced Video Codec
Профиль формата : High@L5.0
Параметр CABAC формата : Да
Параметр ReFrames формата : 4 кадры
Идентификатор кодека : V_MPEG4/ISO/AVC
Продолжительность : 1 ч. 28 м.
Битрейт : 32,1 Мбит/сек
Ширина : 1920 пикс.
Высота : 2064 пикс.
Соотношение сторон : 0,930
Частота кадров : 23,976 кадр/сек
Цветовое пространство : YUV
Подвыборка цветности : 4:2:0
Битовая глубина : 8 бит
Тип развёртки : Прогрессивная
Бит/(Пиксели*Кадры) : 0.338
Размер потока : 20,0 Гбайт (94%)
Библиотека кодирования : x264 core 116 r2074 2641b9e
Настройки программы : cabac=1 / ref=4 / deblock=1:-3:-3 / analyse=0x3:0x113 / me=umh / subme=9 / psy=1 / psy_rd=1.00:0.00 / mixed_ref=1 / me_range=16 / chroma_me=1 / trellis=2 / 8x8dct=1 / cqm=0 / deadzone=21,11 / fast_pskip=1 / chroma_qp_offset=-3 / threads=9 / sliced_threads=0 / nr=0 / decimate=1 / interlaced=0 / bluray_compat=0 / constrained_intra=0 / bframes=6 / b_pyramid=0 / b_adapt=2 / b_bias=0 / direct=3 / weightb=1 / open_gop=0 / weightp=2 / keyint=250 / keyint_min=23 / scenecut=40 / intra_refresh=0 / rc_lookahead=40 / rc=crf / mbtree=1 / crf=18.0 / qcomp=0.60 / qpmin=0 / qpmax=69 / qpstep=4 / frame-packing=4 / ip_ratio=1.40 / aq=1:1.00
Язык : English
Аудио #1
Идентификатор : 2
Формат : AC-3
Формат/Информация : Audio Coding 3
Расширение режима : CM (complete main)
Идентификатор кодека : A_AC3
Продолжительность : 1 ч. 28 м.
Вид битрейта : Постоянный
Битрейт : 640 Кбит/сек
Канал(ы) : 6 канала(ов)
Расположение каналов : Front: L C R, Side: L R, LFE
Частота : 48,0 КГц
Битовая глубина : 16 бит
Метод сжатия : С потерями
Размер потока : 407 Мбайт (2%)
Язык : Russian
Аудио #2
Идентификатор : 3
Формат : AC-3
Формат/Информация : Audio Coding 3
Расширение режима : CM (complete main)
Идентификатор кодека : A_AC3
Продолжительность : 1 ч. 28 м.
Вид битрейта : Постоянный
Битрейт : 640 Кбит/сек
Канал(ы) : 6 канала(ов)
Расположение каналов : Front: L C R, Side: L R, LFE
Частота : 48,0 КГц
Битовая глубина : 16 бит
Метод сжатия : С потерями
Размер потока : 407 Мбайт (2%)
Язык : Japanese
Скришоты сравнения
Благодарности релизеру (2)

Торрент:

Статус:

Размер:

Зарегистрирован   [ 2011-09-29 18:50 ]

проверено

21.17 GB