Торренты   
 
 

 

Пираньи / Piranha [2010г, 1080p, BDrip, Anamorph OverUnder]

Рейтинг 3D:
7 голосов
9.1
Рейтинг фильма:
6 голосов
7.3
 
Вы должны быть авторизированы,
чтобы ставить оценки


Пираньи
Piranha

Год выпуска: 2010
Страна: США (Dimension Films)
Жанр: Триллер, Ужасы
Продолжительность: 01:28:20
Перевод: Профессиональный (полное дублирование)
Режиссер: Александр Ажа / Alexandre Aja
В ролях: Стивен Р. МакКуин, Элизабет Шу, Адам Скотт, Винг Рэймс, Кристофер Ллойд, Ричард Дрейфусс, Джерри О`Коннелл, Джессика Зор, Келли Брук, Райли Стил, Элай Рот
Описание: 20 тысяч подростков курортного городка у озера Виктория готовятся к празднованию ежегодного праздника начала лета. Но ночное землетрясение высвобождает сотни тысяч доисторических пираний прямо накануне торжества. Очаровательная шериф, ее подчиненные-полицейские и доктор Горден Рэйбэнкс решают сделать все, чтобы веселый праздник молодежи в озере не превратился в кровавое пиршество. Но пираньи уже знают ответ, кто победит: молодость или многовековая жажда крови…Проверено на встроенном плейере ТВ Samsung UE-C7000 Формат 3d: Anamorph OverUnder
Качество: BDrip
Контейнер: MKV
Видео: AVC / 1920х1080p / 23,976 fps / 17.0 Mbps
Аудио#1: Русский / AC3 / 48 KHz / 5.1 ch / 448 Kbps
Аудио#2: Английский / AC3 / 48 KHz / 5.1 ch / 640 Kbps

MediaInfo

General
UniqueID : 170809196773157299308632126111583049706 (0x8080A799627EE49888DCE9D11C5817EA)
Complete name : F:\Downloads\Piranha3D.halfOU.AC3.ash61.mkv
Format : Matroska
File size : 11.4 GiB
Duration : 1h 28mn
Overall bit rate : 18.4 Mbps
Movie name : Piranha 3D (ash61)
Encoded date : UTC 2011-09-30 11:19:03
Writing application : mkvmerge v3.4.0 ('Rapunzel') сборка от May 15 2010 09:38:20
Writing library : libebml v0.8.0 + libmatroska v0.9.0
Video
ID : 1
Format : AVC
Format/Info : Advanced Video Codec
Format profile : High@L4.1
Format settings, CABAC : Yes
Format settings, ReFrames : 4 frames
Codec ID : V_MPEG4/ISO/AVC
Duration : 1h 28mn
Bit rate : 17.0 Mbps
Width : 1 920 pixels
Height : 1 080 pixels
Display aspect ratio : 16:9
Frame rate : 23.976 fps
Color space : YUV
Chroma subsampling : 4:2:0
Bit depth : 8 bits
Scan type : Progressive
Bits/(Pixel*Frame) : 0.341
Stream size : 10.5 GiB (92%)
Title : Rip by ash61
Writing library : x264 core 113 r1884 7313bb5
Encoding settings : cabac=1 / ref=4 / deblock=1:-3:-3 / analyse=0x3:0x113 / me=umh / subme=9 / psy=1 / psy_rd=1.00:0.15 / mixed_ref=1 / me_range=16 / chroma_me=1 / trellis=2 / 8x8dct=1 / cqm=0 / deadzone=21,11 / fast_pskip=1 / chroma_qp_offset=-3 / threads=3 / sliced_threads=0 / nr=0 / decimate=1 / interlaced=0 / constrained_intra=0 / bframes=6 / b_pyramid=2 / b_adapt=2 / b_bias=0 / direct=3 / weightb=1 / open_gop=0 / weightp=2 / keyint=250 / keyint_min=23 / scenecut=40 / intra_refresh=0 / rc_lookahead=60 / rc=crf / mbtree=1 / crf=18.0 / qcomp=0.70 / qpmin=1 / qpmax=51 / qpstep=4 / ip_ratio=1.40 / aq=1:1.00
Audio #1
ID : 2
Format : AC-3
Format/Info : Audio Coding 3
Mode extension : CM (complete main)
Codec ID : A_AC3
Duration : 1h 28mn
Bit rate mode : Constant
Bit rate : 448 Kbps
Channel(s) : 6 channels
Channel positions : Front: L C R, Side: L R, LFE
Sampling rate : 48.0 KHz
Bit depth : 16 bits
Compression mode : Lossy
Stream size : 283 MiB (2%)
Language : Russian
Audio #2
ID : 3
Format : AC-3
Format/Info : Audio Coding 3
Mode extension : CM (complete main)
Codec ID : A_AC3
Duration : 1h 28mn
Bit rate mode : Constant
Bit rate : 640 Kbps
Channel(s) : 6 channels
Channel positions : Front: L C R, Side: L R, LFE
Sampling rate : 48.0 KHz
Bit depth : 16 bits
Compression mode : Lossy
Stream size : 404 MiB (3%)
Language : English
Menu
00:00:00.000 : :01
00:04:50.665 : :02
00:11:03.872 : :03
00:17:21.624 : :04
00:23:03.549 : :05
00:30:19.401 : :06
00:35:00.348 : :07
00:42:21.456 : :08
00:48:32.409 : :09
00:52:20.262 : :10
01:00:03.600 : :11
01:01:18.466 : :12
01:05:40.353 : :13
01:09:08.936 : :14
01:15:38.033 : :15
01:20:57.352 : :16
01:22:11.343 : :17
01:27:51.683 : :18

Скриншоты

Господа копипастеры, уважайте, пожалуйста, труд рипперов - указывайте авторство в своих релизах!
Благодарности релизеру (10)

Торрент:

Статус:

Размер:

Зарегистрирован   [ 2011-09-30 17:27 ]

проверено

11.36 GB