Торренты   
 
 

 

Монстры против пришельцев 3Д БлюРей / Monsters vs Aliens 3D (Rob Letterman, Конрад Вернон) [2009 г., фантастическая комедия, SeparateFiles]

Рейтинг 3D:
50 голосов
8.7
Рейтинг фильма:
49 голосов
8.4
 
Вы должны быть авторизированы,
чтобы ставить оценки


Монстры против пришельцев / Monsters vs Aliens 3D
Первый 3Д БлюРей!!!
Год выпуска: 2009
Страна: США
Жанр: фантастическая комедия, мультфильм
Продолжительность: 01:34:34
Перевод: Профессиональный (полное дублирование)
Режиссер: Роб Леттерман /Rob Letterman/ («Подводная братва»), Конрад Вернон /Conrad Vernon/ («Шрек 2»)
Описание: В Сюзан Мёрфи, девушку из Калифорнии, прямо в день ее свадьбы попадает метеорит, полный всякой дряни из космоса, в результате чего она вдруг начинает расти и вырастает до пятнадцати метров. Встревоженные появлением нового монстра, военные сразу берутся за дело: Сюзан отлавливают и увозят на секретную правительственную базу.
Там её переименовывают в Гигантику и запирают вместе с другими монстрами: гениальным, но насекомоголовым доктором наук Тараканом; брутальным рыбочеловеком по кличке Недостающее Звено; желеподобным и неубиваемым Б. О. Бом и стометровым Насекомозавром. Правда, их тюремное заключение длится недолго: на Землю нападает инопланетный робот, и отчаявшийся Президент, поддавшись уговорам генерала Воякера, отправляет разношерстную команду монстров на спасение планеты от неминуемой гибели.
Доп. информация: Второй ракурс раскодирован из 3D Blu-Ray
Ракурс является абсолютно честным, т.е. это не псевдо3Д, а настоящая стереопара.
Для просмотра понадобится стереоплеер, через него можно смотреть с любыми видами очков и стереомониторов. В Стереоскопик плеере открыть как "Открыть правый и левый файл", в окне браузера поменять "тип файла" - "Все файлы" вместо "все поддерживаемые" (по умолчанию), иначе не увидит расширение MKV, потом Вид _ метод просмотра _ .... под свой тип очков или 3Д монитор.
Требования к железу при просмотре данного контента выше средних - проигрывается параллельно сразу два ролика 1080p
Релиз любезно предоставлен eugeniy2
Основная мега благодарность alexpk за раскодирование MVC контейнера, так как пока нет софт декодера и ни одна прога не может читать 3Д БлюРей, кроме железных БД3Д дек и приводов.

1 ракурс, метаданные

Format : Matroska
File size : 17.0 GiB
Duration : 1h 34mn
Overall bit rate : 25.7 Mbps
Encoded date : UTC 2010-05-08 12:03:01
Writing application : mkvmerge v3.3.0 ('Language') built on Mar 24 2010 14:59:24
Writing library : libebml v0.8.0 + libmatroska v0.9.0
Video
ID : 1
Format : AVC
Format/Info : Advanced Video Codec
Codec ID : V_MPEG4/ISO/AVC
Duration : 1h 34mn
Bit rate : 23.9 Mbps
Width : 1 920 pixels
Height : 1 080 pixels
Display aspect ratio : 16:9
Frame rate : 23.976 fps
Bits/(Pixel*Frame) : 0.481
Stream size : 15.8 GiB (93%)
Title : left
Language : English
Audio #1
ID : 2
Format : AC-3
Format/Info : Audio Coding 3
Format_Settings_ModeExtension : CM (complete main)
Codec ID : A_AC3
Duration : 1h 34mn
Bit rate mode : Constant
Bit rate : 640 Kbps
Channel(s) : 6 channels
Channel positions : Front: L C R, Side: L R, LFE
Sampling rate : 48.0 KHz
Stream size : 433 MiB (2%)
Language : Russian
Audio #2
ID : 3
Format : AC-3
Format/Info : Audio Coding 3
Format_Settings_ModeExtension : CM (complete main)
Codec ID : A_AC3
Duration : 1h 34mn
Bit rate mode : Constant
Bit rate : 640 Kbps
Channel(s) : 6 channels
Channel positions : Front: L C R, Side: L R, LFE
Sampling rate : 48.0 KHz
Stream size : 433 MiB (2%)
Language : English
Text #1
ID : 4
Format : UTF-8
Codec ID : S_TEXT/UTF8
Codec ID/Info : UTF-8 Plain Text
Language : Russian
Text #2
ID : 5
Format : UTF-8
Codec ID : S_TEXT/UTF8
Codec ID/Info : UTF-8 Plain Text
Language : English

2-й ракурс, метаданные

Format : Matroska
File size : 3.64 GiB
Duration : 1h 34mn
Overall bit rate : 5 525 Kbps
Encoded date : UTC 2010-05-08 10:46:17
Writing application : mkvmerge v3.3.0 ('Language') built on Mar 24 2010 14:59:24
Writing library : libebml v0.8.0 + libmatroska v0.9.0
Video
ID : 1
Format : AVC
Format/Info : Advanced Video Codec
Format profile : High@L4.1
Format settings, CABAC : Yes
Format settings, ReFrames : 4 frames
Muxing mode : Container profile=Unknown@4.1
Codec ID : V_MPEG4/ISO/AVC
Duration : 1h 34mn
Bit rate : 5 415 Kbps
Width : 1 920 pixels
Height : 1 080 pixels
Display aspect ratio : 16:9
Frame rate : 23.976 fps
Original frame rate : 25.000 fps
Resolution : 8 bits
Colorimetry : 4:2:0
Scan type : Progressive
Bits/(Pixel*Frame) : 0.109
Stream size : 3.57 GiB (98%)
Title : right
Writing library : x264 core 94 r1570 d9db8b3
Encoding settings : cabac=1 / ref=4 / deblock=1:-1:-1 / analyse=0x3:0x113 / me=umh / subme=7 / psy=1 / psy_rd=1.00:0.15 / mixed_ref=1 / me_range=16 / chroma_me=1 / trellis=2 / 8x8dct=1 / cqm=0 / deadzone=21,11 / fast_pskip=1 / chroma_qp_offset=-3 / threads=6 / sliced_threads=0 / nr=0 / decimate=1 / interlaced=0 / constrained_intra=0 / bframes=6 / b_pyramid=0 / b_adapt=2 / b_bias=0 / direct=3 / wpredb=1 / wpredp=2 / keyint=250 / keyint_min=25 / scenecut=40 / intra_refresh=0 / rc_lookahead=40 / rc=crf / mbtree=1 / crf=19.0 / qcomp=0.60 / qpmin=10 / qpmax=51 / qpstep=4 / vbv_maxrate=50000 / vbv_bufsize=50000 / crf-max=0.0 / ip_ratio=1.40 / aq=2:1.00 / nal_hrd=none
Language : English
Формат 3d: SeparateFiles (два отдельных файла левого и правого ракурса)
Видео: Качество: BDremux + BDrip
Формат: MKV
Видео кодек: h.264 + x264
Видеопоток левый: 1920x1080p (2.35:1), 23.976 fps, H.264 ~24 mbps
Видеопоток правый: MPEG4 Video (H264) 1920x1080 23.98fps ~5 mbps CRF19
Аудио кодек: AC3
Аудиопоток №1 (RUS): DD 5.1, 48 kHz, 640 kbps
Аудиопоток №2 (ENG): DD 5.1, 48 kHz, 640 kbps

Скриншоты

Скриншоты 3d сделаны фотоаппаратом с 3d телевизора :)



2Д скрины одного ракурса:


Остальные раздачи этого фильма (7)
Благодарности релизеру (0)

Торрент:

Статус:

Размер:

Зарегистрирован   [ 2011-11-04 12:33 ]

проверено

20.61 GB

 
 Мнение о фильме (9)





Мульт так себе , для детишек . Но 3Д очень прикольное ... Смотрел правда BD3D на LG LM55660S. Вылезания и вылеты из экрана очень эффектные..
 

3д очень прикольное.
 
Виталий Цыганов Профиль 16-Апр-2013 20:54

Мульт классный, юмор не тупой, очень смешно. Правда в конце немного скушновато. Но почти весь мульт - интересно и смешно!
 

В сюжет не вникал,дети смотрели,но эффекты и звук просто супер!Смотрел на Philips 37PFL6007k. Спасибо!
 

дети довольны смотрели на lg47lm640t
 

хороший мультик, 3d тоже на высоте
 

Отличный мультфильм с оригинальным юмором и переводом 3D эффекты на высоте.
 

Мультик хороший. Но для "семейного просмотра" я бы посоветовал какой-нибудь другой мультфильм... А для детей - отлично.
 

классный фильм. спасибо за раздачу.