Торренты   
 
 


Красное море 3D / Red sea 3D [2011 г., документальный, Anamorph SideBySide]

Красное море 3D / Red sea 3D
Год выпуска: 2011
Страна: США
Жанр: Документальный
Продолжительность: 26м 30с
Перевод: Не требуется
Описание: Документальная подводная съёмка в 3D
Формат 3d: Anamorph SideBySide
Порядок ракурсов: Параллельная пара
Видео: 1920х1080, MPEG Video, 25 fps, 21.7 Mbps
Аудио: PCM, 48 kHz, 2.0, 1536 kbps

MediaInfo

General
Complete name : F:\Downloads\Red sea 3D.mpg
Format : MPEG-PS
File size : 4.39 GiB
Duration : 26mn 29s
Overall bit rate : 23.7 Mbps
Video
ID : 224 (0xE0)
Format : MPEG Video
Format version : Version 2
Format profile : Main@High
Format settings, BVOP : Yes
Format settings, Matrix : Default
Format settings, GOP : M=3, N=12
Duration : 26mn 29s
Bit rate mode : Variable
Bit rate : 21.7 Mbps
Nominal bit rate : 25.0 Mbps
Width : 1 920 pixels
Height : 1 080 pixels
Display aspect ratio : 16:9
Frame rate : 25.000 fps
Standard : PAL
Color space : YUV
Chroma subsampling : 4:2:0
Bit depth : 8 bits
Scan type : Interlaced
Scan order : Bottom Field First
Compression mode : Lossy
Bits/(Pixel*Frame) : 0.419
Stream size : 4.02 GiB (92%)
Audio
ID : 160 (0xA0)
Format : PCM
Format settings, Endianness : Big
Format settings, Sign : Signed
Muxing mode : DVD-Video
Duration : 26mn 29s
Bit rate mode : Constant
Bit rate : 1 536 Kbps
Channel(s) : 2 channels
Channel positions : Front: L R
Sampling rate : 48.0 KHz
Bit depth : 16 bits
Stream size : 291 MiB (6%)

Скриншоты





Комментарии:

1, 2  След.






Спасибо, kanasyvrik! Подводное - это интересно. :)
 

И от меня спасибо большое.
 

Всем большое пожалуйста и приятного просмотра
 

Graciasss
Спасибо
 

Спасибо!
 

я тоже - спасибо!
 

медиа инфо где?
 

kanasyvrik
Встаньте на раздачу (чтобы вы и здесь в сидах числились) и, ну да, добавьте медиаинфо.
Качество конечно... Зато стереобаза крепкая.
 

МедиаИнфо этого файла:
General
Complete name : F:\Downloads\Red sea 3D.mpg
Format : MPEG-PS
File size : 4.39 GiB
Duration : 26mn 29s
Overall bit rate : 23.7 Mbps
Video
ID : 224 (0xE0)
Format : MPEG Video
Format version : Version 2
Format profile : Main@High
Format settings, BVOP : Yes
Format settings, Matrix : Default
Format settings, GOP : M=3, N=12
Duration : 26mn 29s
Bit rate mode : Variable
Bit rate : 21.7 Mbps
Nominal bit rate : 25.0 Mbps
Width : 1 920 pixels
Height : 1 080 pixels
Display aspect ratio : 16:9
Frame rate : 25.000 fps
Standard : PAL
Color space : YUV
Chroma subsampling : 4:2:0
Bit depth : 8 bits
Scan type : Interlaced
Scan order : Bottom Field First
Compression mode : Lossy
Bits/(Pixel*Frame) : 0.419
Stream size : 4.02 GiB (92%)
Audio
ID : 160 (0xA0)
Format : PCM
Format settings, Endianness : Big
Format settings, Sign : Signed
Muxing mode : DVD-Video
Duration : 26mn 29s
Bit rate mode : Constant
Bit rate : 1 536 Kbps
Channel(s) : 2 channels
Channel positions : Front: L R
Sampling rate : 48.0 KHz
Bit depth : 16 bits
Stream size : 291 MiB (6%)
Странно, пишет "Полного источника не было: Никогда", а в мюТорренте показывает одного-двух сидов и реально процент скачанного у всех повышается! :)
 

Привет и Казахстана,
Спасибо, Здорово, что есть такая воможность увидеть красоты всего мира в 3D, ибо не у каждого есть возможность провест отпус так , как он мечтает.
СПАСИБО
 

ash61 Спасибо за помощ с инфой)
 

MagNat
Кино отпуск никак не замещает...
 

Да пожалуйста, kanasyvrik, не проблема! :)
Только желательно бы её в оформление вставить...
 

Большое спасибо
 

Большое спасибо
 

Мне одному кажется, что эта раздача должна быть в разделе«Любительское видео»?
 

NOFXВам это так принципиально?Модераторы перенесут если посчитают нужным,
 

У меня почемуто не качается, пишет "Нет данных"
 

Bit rate : 21.7 Mbps :) - можно смело в 3 раза уменьшить .
 

Качество вообще никуда не годится.
 

Страница 1 из 2

1, 2  След.