Торренты   
 
 


Красное море 3D / Red sea 3D [2011 г., документальный, Anamorph SideBySide]

Красное море 3D / Red sea 3D
Год выпуска: 2011
Страна: США
Жанр: Документальный
Продолжительность: 26м 30с
Перевод: Не требуется
Описание: Документальная подводная съёмка в 3D
Формат 3d: Anamorph SideBySide
Порядок ракурсов: Параллельная пара
Видео: 1920х1080, MPEG Video, 25 fps, 21.7 Mbps
Аудио: PCM, 48 kHz, 2.0, 1536 kbps

MediaInfo

General
Complete name : F:\Downloads\Red sea 3D.mpg
Format : MPEG-PS
File size : 4.39 GiB
Duration : 26mn 29s
Overall bit rate : 23.7 Mbps
Video
ID : 224 (0xE0)
Format : MPEG Video
Format version : Version 2
Format profile : Main@High
Format settings, BVOP : Yes
Format settings, Matrix : Default
Format settings, GOP : M=3, N=12
Duration : 26mn 29s
Bit rate mode : Variable
Bit rate : 21.7 Mbps
Nominal bit rate : 25.0 Mbps
Width : 1 920 pixels
Height : 1 080 pixels
Display aspect ratio : 16:9
Frame rate : 25.000 fps
Standard : PAL
Color space : YUV
Chroma subsampling : 4:2:0
Bit depth : 8 bits
Scan type : Interlaced
Scan order : Bottom Field First
Compression mode : Lossy
Bits/(Pixel*Frame) : 0.419
Stream size : 4.02 GiB (92%)
Audio
ID : 160 (0xA0)
Format : PCM
Format settings, Endianness : Big
Format settings, Sign : Signed
Muxing mode : DVD-Video
Duration : 26mn 29s
Bit rate mode : Constant
Bit rate : 1 536 Kbps
Channel(s) : 2 channels
Channel positions : Front: L R
Sampling rate : 48.0 KHz
Bit depth : 16 bits
Stream size : 291 MiB (6%)

Скриншоты





Комментарии:

Пред.  1, 2






Очень люблю подводные документальные фильмы! Огромное СПАСИБО kanasyvrik !!!!!!!!!
 

Спасибо!!!
 

Спасибо , в целом ничего , но под конец рыбки стали двоится ,,,
 

Поскажите куда глянуть, с других торентов качается, а с этого сайта вообще ничего никачается.
Пишет: Invalid data from tracker
 

сегодня вставил винт в lg 575/ кажет, но глаза сразу болят. чем лечить? кто знает? и звук трещит.
 

Большое спасибо. Сам так на видео не снимешь .
 

А почему раздачу закрыли?, я только собрался скачать, а тут нате вам.
 

Топик был перенесен из форума Фильмы в форум Документальные

Zagruzin
 

wolf19
Обратитесь к автору раздачи в личку, может быть получится его уговорить раскрыть свои раздачи. Он устал от ощущения, что делает работу впустую, получая только критику в ответ, поэтому в страстях убрал все свои раздачи.
 

как сдесь можно чтонибудь скачать?
 

-РВВ-
Эту раздачу не скачать, автор ее прикрыл.
 

Страница 2 из 2

Пред.  1, 2