Торренты   
 
 


Зов дикой природы / Call of the Wild [2009 г., Anamorph OverUnder]

Рейтинг 3D:
Пока никто не голосовал
Рейтинг фильма:
Пока никто не голосовал
 
Вы должны быть авторизированы,
чтобы ставить оценки


Зов дикой природы / Call of the Wild- Год выпуска: 2009
Страна: США
Жанр: драма, приключения, семейный
Продолжительность: 01:27:20-Описание: Родители 10-летней Райан уезжают в Европу и на время своего отсутствия отправляют дочь в Монтану к дедушке. Избалованной городской девочке штат Монтана кажется страшной глушью, а местные жители — весьма странными людьми. Особенно ей непонятно их увлечение собачьими гонками. Но однажды к дому деда прибивается раненая дикая собака, полупес-полуволк, и девочка начинает ухаживать за животным…-Исходник: ТУТ-Формат 3d: Anamorph OverUnder (Левый ракурс верхний)
З.Ы.: Т.к. в моноракурсе видеоряд содержит видеонарезку как левого так и правого ракурса, то сильно не пинать, как уж получилось, в принципе "смотрибельно"...

MediaInfo

Код:
General
Unique ID                        : 171153673456020094408213975210569215370 (0x80C2FF9C64039329A12DBAD69AD7AD8A)
Complete name                    : L:\Proba\Call_Wild_3D.mkv
Format                           : Matroska
File size                        : 7.64 GiB
Duration                         : 1h 27mn
Overall bit rate                 : 12.5 Mbps
Encoded date                     : UTC 2011-10-05 13:44:10
Writing application              : mkvmerge v4.0.0 ('The Stars were mine') сборка от Jun  6 2010 16:18:42
Writing library                  : libebml v1.0.0 + libmatroska v1.0.0
Video
ID                               : 1
Format                           : AVC
Format/Info                      : Advanced Video Codec
Format profile                   : High@L4.1
Format settings, CABAC           : Yes
Format settings, ReFrames        : 4 frames
Format settings, GOP             : N=1
Codec ID                         : V_MPEG4/ISO/AVC
Duration                         : 1h 27mn
Bit rate                         : 11.6 Mbps
Width                            : 1 920 pixels
Height                           : 1 080 pixels
Display aspect ratio             : 16:9
Frame rate                       : 23.976 fps
Color space                      : YUV
Chroma subsampling               : 4:2:0
Bit depth                        : 8 bits
Scan type                        : Progressive
Bits/(Pixel*Frame)               : 0.234
Stream size                      : 7.10 GiB (93%)
Writing library                  : x264 core 116 r2074 2641b9e
Encoding settings                : cabac=1 / ref=4 / deblock=1:-2:-2 / analyse=0x3:0x113 / me=umh / subme=9 / psy=1 / psy_rd=1.00:0.15 / mixed_ref=1 / me_range=16 / chroma_me=1 / trellis=2 / 8x8dct=1 / cqm=0 / deadzone=21,11 / fast_pskip=1 / chroma_qp_offset=-3 / threads=6 / sliced_threads=0 / nr=0 / decimate=1 / interlaced=0 / bluray_compat=0 / constrained_intra=0 / bframes=6 / b_pyramid=2 / b_adapt=2 / b_bias=0 / direct=3 / weightb=1 / open_gop=0 / weightp=2 / keyint=250 / keyint_min=23 / scenecut=40 / intra_refresh=0 / rc_lookahead=40 / rc=crf / mbtree=1 / crf=18.0 / qcomp=0.60 / qpmin=10 / qpmax=61 / qpstep=4 / ip_ratio=1.40 / aq=1:1.00
Language                         : English
Audio #1
ID                               : 2
Format                           : AC-3
Format/Info                      : Audio Coding 3
Format profile                   : Dolby Digital
Mode extension                   : CM (complete main)
Codec ID                         : A_AC3
Duration                         : 1h 27mn
Bit rate mode                    : Constant
Bit rate                         : 192 Kbps
Channel(s)                       : 2 channels
Channel positions                : Front: L R
Sampling rate                    : 48.0 KHz
Bit depth                        : 16 bits
Compression mode                 : Lossy
Stream size                      : 120 MiB (2%)
Language                         : Russian
Audio #2
ID                               : 3
Format                           : AC-3
Format/Info                      : Audio Coding 3
Mode extension                   : CM (complete main)
Codec ID                         : A_AC3
Duration                         : 1h 27mn
Bit rate mode                    : Constant
Bit rate                         : 448 Kbps
Channel(s)                       : 6 channels
Channel positions                : Front: L C R, Side: L R, LFE
Sampling rate                    : 48.0 KHz
Bit depth                        : 16 bits
Compression mode                 : Lossy
Stream size                      : 280 MiB (4%)
Language                         : English

Скриншоты




Благодарности релизеру (0)

Торрент:

Статус:

Размер:

Зарегистрирован   [ 2011-10-05 22:26 ]

* не проверено

7.64 GB

 
Комментарии:





а стерео пару сделать смогете-а
(а хотелось бы)
 

Спасибо большое! Как сам фильм?:)
 

samfednik
Спасибо за релиз, а то у меня в анаглифе и без перевода был.
bodylau
А это что? моно-пара, что-ли?
 

 

 

ash61
ну тогда уж и с юзнета :)))
http://www.nzbindex.nl/search/?q=Call.Of.The.Wild.3...pam=1&more=1
 

Кто скачает? Могу залить русскую дорогу.
 

samfednik, для того видео дорогу придётся редактировать, т.к. продолжительность 1час 24мин.
 

Сделал HDTVRip, так что, модеры можете "грохать" эту раздачу...
 

Топик был перенесен из форума Восстановленные из анаглифа в форум Архив

Zagruzin