Торренты   
 
 

 

Зеленый Фонарь / Green Lantern (Мартин Кэмпбелл / Martin Campbell) [2011г, 1080p, BDrip, Anamorph OverUnder]

Рейтинг 3D:
42 голосов
7.0
Рейтинг фильма:
44 голосов
6.7
 
Вы должны быть авторизированы,
чтобы ставить оценки


Зеленый Фонарь
Green Lantern
Театральная версия / Theatrical Cut Год выпуска: 2011
Страна: США (Warner Bros. Pictures)
Жанр: Фантастика, Приключения, Боевик
Продолжительность: 01:54:00
Перевод: Профессиональный дублированный (Лицензия)
Субтитры: Русские форсированные, Русские полные, Английские полные
Режиссер: Мартин Кэмпбелл / Martin Campbell
В ролях: Райан Рейнольдс, Блейк Лайвли, Питер Сарсгаард, Марк Стронг, Темуэра Моррисон, Дженна Крэйг, Джон Тенни, Майк Дойл, Гэтлин Гриффит, Николас Джендл
Описание: Во Вселенной, столь же бесконечной, сколь и загадочной, многие века существовал отряд воинов, обладающих огромной силой. Защитники мира и справедливости, их называют Корпус Зеленых Фонарей. Братство воинов, поклявшихся защищать межгалактический закон, где каждый из них носит кольцо, дарующее ему сверхспособности. Но когда новый враг по имени Параллакс угрожает нарушить равновесие во Вселенной, их судьба и судьба Земли оказывается в руках новобранца, первого человека в истории отряда — Хэла Джордана.
Хэл — дерзкий и талантливый летчик-испытатель, но Зеленые Фонари не испытывают доверия и уважения к человечеству, ведь людям до этого ни разу не удалось обуздать безграничную силу кольца. Но Хэл — как недостающий кусочек мозаики, и вместе с решимостью и силой воли он обладает тем, чего не было ни у одного звездного воителя, — человечностью. Если при поддержке напарника и подруги детства Кэрол Феррис (Блейк Лайвли) Хэл сможет быстро научиться управлять мощью кольца и найдет мужество преодолеть свои страхи, он сможет не только доказать, что он является ключом к победе над Параллаксом… но и станет величайшим Зеленым Фонарем из всех.Проверено на встроенном плейере ТВ Samsung UE-C7000Формат 3d: Anamorph OverUnder
Качество: BDrip
Контейнер: MKV
Видео: AVC / 1920х1080p / 23,976 fps / 12.5 Mbps
Аудио#1: Русский / AC3 / 48 KHz / 5.1 ch / 448 Kbps (Лицензия)
Аудио#2: Украинский / AC3 / 48 KHz / 5.1 ch / 448 Kbps
Аудио#3: Английский / AC3 / 48 KHz / 5.1 ch / 640 Kbps
Субтитры: Внешние, srt. По умолчанию включены русские форсированные

MediaInfo

General
UniqueID : 209041489175151099833771776954254752143 (0x9D43ED2612429735B37808109773F98F)
Complete name : F:\Downloads\Green.Lantern-3D.2011.halfOU.AC3-ash61\Green.Lantern-3D.2011.halfOU.AC3-ash61.mkv
Format : Matroska
File size : 11.4 GiB
Duration : 1h 54mn
Overall bit rate : 14.3 Mbps
Movie name : Green Lantern (ash61)
Encoded date : UTC 2011-10-19 12:51:02
Writing application : mkvmerge v3.4.0 ('Rapunzel') сборка от May 15 2010 09:38:20
Writing library : libebml v0.8.0 + libmatroska v0.9.0
Video
ID : 1
Format : AVC
Format/Info : Advanced Video Codec
Format profile : High@L4.1
Format settings, CABAC : Yes
Format settings, ReFrames : 4 frames
Codec ID : V_MPEG4/ISO/AVC
Duration : 1h 54mn
Bit rate : 12.5 Mbps
Width : 1 920 pixels
Height : 1 080 pixels
Display aspect ratio : 16:9
Frame rate : 23.976 fps
Color space : YUV
Chroma subsampling : 4:2:0
Bit depth : 8 bits
Scan type : Progressive
Bits/(Pixel*Frame) : 0.251
Stream size : 9.95 GiB (87%)
Title : Rip by ash61
Writing library : x264 core 113 r1884 7313bb5
Encoding settings : cabac=1 / ref=4 / deblock=1:-3:-3 / analyse=0x3:0x113 / me=umh / subme=9 / psy=1 / psy_rd=1.00:0.15 / mixed_ref=1 / me_range=16 / chroma_me=1 / trellis=2 / 8x8dct=1 / cqm=0 / deadzone=21,11 / fast_pskip=1 / chroma_qp_offset=-3 / threads=3 / sliced_threads=0 / nr=0 / decimate=1 / interlaced=0 / constrained_intra=0 / bframes=6 / b_pyramid=2 / b_adapt=2 / b_bias=0 / direct=3 / weightb=1 / open_gop=0 / weightp=2 / keyint=250 / keyint_min=23 / scenecut=40 / intra_refresh=0 / rc_lookahead=60 / rc=crf / mbtree=1 / crf=18.0 / qcomp=0.60 / qpmin=10 / qpmax=51 / qpstep=4 / ip_ratio=1.40 / aq=1:1.00
Audio #1
ID : 2
Format : AC-3
Format/Info : Audio Coding 3
Mode extension : CM (complete main)
Codec ID : A_AC3
Duration : 1h 54mn
Bit rate mode : Constant
Bit rate : 448 Kbps
Channel(s) : 6 channels
Channel positions : Front: L C R, Side: L R, LFE
Sampling rate : 48.0 KHz
Bit depth : 16 bits
Compression mode : Lossy
Stream size : 365 MiB (3%)
Title : Лицензия
Language : Russian
Audio #2
ID : 3
Format : AC-3
Format/Info : Audio Coding 3
Mode extension : CM (complete main)
Codec ID : A_AC3
Duration : 1h 54mn
Bit rate mode : Constant
Bit rate : 448 Kbps
Channel(s) : 6 channels
Channel positions : Front: L C R, Side: L R, LFE
Sampling rate : 48.0 KHz
Bit depth : 16 bits
Compression mode : Lossy
Stream size : 365 MiB (3%)
Language : Ukrainian
Audio #3
ID : 4
Format : AC-3
Format/Info : Audio Coding 3
Mode extension : CM (complete main)
Codec ID : A_AC3
Duration : 1h 54mn
Bit rate mode : Constant
Bit rate : 640 Kbps
Channel(s) : 6 channels
Channel positions : Front: L C R, Side: L R, LFE
Sampling rate : 48.0 KHz
Bit depth : 16 bits
Compression mode : Lossy
Stream size : 522 MiB (4%)
Language : English
Menu
00:00:00.000 : :01
00:06:37.814 : :02
00:16:36.078 : :03
00:24:36.141 : :04
00:33:13.909 : :05
00:40:33.806 : :06
00:48:23.818 : :07
00:57:05.464 : :08
01:04:24.527 : :09
01:15:01.831 : :10
01:23:11.486 : :11
01:34:29.455 : :12
01:42:22.762 : :13
01:47:15.346 : :14

Скриншоты

19.10.2011 - русская дорожка заменена на Лицензию + украинская дорожка + субтитры. Скачайте заново торрент-файл!-Господа копипастеры, пожалуйста, уважайте труд рипперов - указывайте авторство в своих релизах!
Остальные раздачи этого фильма (5)
Благодарности релизеру (15)

Торрент:

Статус:

Размер:

Зарегистрирован   [ 2011-10-19 18:15 ]

проверено

11.4 GB