Торренты   
 
 


Космический спецназ Гарфилда / Garfield's Pet Force (Марк А.З. Диппе) [2009 г., BDRip 1080p, Full OverUnder]

Рейтинг 3D:
Пока никто не голосовал
Рейтинг фильма:
Пока никто не голосовал
 
Вы должны быть авторизированы,
чтобы ставить оценки


Космический спецназ Гарфилда / Garfield's Pet Force
Год выпуска: 2009
Страна: США, Корея Южная
Жанр: комедия, семейный, мультфильм
Продолжительность: 01:13:22
Перевод: Профессиональный (двухголосый)
Режиссер: Марк А.З. Диппе
В ролях: Грегг Бергер, Кэти Кавадини, Дженнифер Дарлинг, Грег Иглз, Грег Финли, Джефф Фишер, Ванесса Маршалл, Дэвид Мичи, Пейдж Поллак, Нил Росс
Описание: Всем известный кот-толстяк Гарфилд, большой любитель лазаньи, уcтраивает пикник со своими друзьями, но этот чудный день был испорчен непрошеными гостями. Оди и Нермал становятся супергероями, чтобы прогнать их, но Гарфилд не следует их примеру, ему просто лень. Но когда друзья оказываются в беде, кот понимает, что пришло время надеть маску героя

Формат 3d: OverUnder
Видео: AVC, h264, 1920х2064, 23,976 кадр/сек, 10,8 Мбит/сек
Аудио: Rus, AC-3, 2 канала, 224 Кбит/сек, 48,0 КГц
Аудио: Eng, AC-3, 6 каналов, 640 Кбит/сек, 48,0 КГц

Скриншоты



me

Полное имя : D:\_Stereo\Garfield's Pet Force 1080p.mkv
Формат : Matroska
Размер файла : 6,08 Гбайт
Продолжительность : 1 ч. 13 м.
Общий поток : 11,9 Мбит/сек
Дата кодирования : UTC 2011-10-05 03:35:24
Программа кодирования : mkvmerge v3.4.0 ('Rapunzel') сборка от May 15 2010 09:38:20
Библиотека кодирования : libebml v0.8.0 + libmatroska v0.9.0
Видео
Идентификатор : 1
Формат : AVC
Формат/Информация : Advanced Video Codec
Профиль формата : High@L5.0
Параметр CABAC формата : Да
Параметр ReFrames формата : 4 кадры
Идентификатор кодека : V_MPEG4/ISO/AVC
Продолжительность : 1 ч. 13 м.
Битрейт : 10,8 Мбит/сек
Ширина : 1920 пикс.
Высота : 2064 пикс.
Соотношение сторон : 0,930
Частота кадров : 23,976 кадр/сек
Цветовое пространство : YUV
Подвыборка цветности : 4:2:0
Битовая глубина : 8 бит
Тип развёртки : Прогрессивная
Бит/(Пиксели*Кадры) : 0.113
Размер потока : 5,52 Гбайт (91%)
Библиотека кодирования : x264 core 116 r2074 2641b9e
Настройки программы : cabac=1 / ref=4 / deblock=1:-2:-2 / analyse=0x3:0x113 / me=umh / subme=9 / psy=1 / psy_rd=1.00:0.00 / mixed_ref=1 / me_range=16 / chroma_me=1 / trellis=2 / 8x8dct=1 / cqm=0 / deadzone=21,11 / fast_pskip=1 / chroma_qp_offset=-3 / threads=9 / sliced_threads=0 / nr=0 / decimate=1 / interlaced=0 / bluray_compat=0 / constrained_intra=0 / bframes=6 / b_pyramid=0 / b_adapt=2 / b_bias=0 / direct=3 / weightb=1 / open_gop=0 / weightp=2 / keyint=250 / keyint_min=23 / scenecut=40 / intra_refresh=0 / rc_lookahead=40 / rc=crf / mbtree=1 / crf=18.0 / qcomp=0.60 / qpmin=0 / qpmax=69 / qpstep=4 / frame-packing=4 / ip_ratio=1.40 / aq=1:1.00
Язык : English
Аудио #1
Идентификатор : 2
Формат : AC-3
Формат/Информация : Audio Coding 3
Расширение режима : CM (complete main)
Идентификатор кодека : A_AC3
Продолжительность : 1 ч. 13 м.
Вид битрейта : Постоянный
Битрейт : 224 Кбит/сек
Канал(ы) : 2 канала(ов)
Расположение каналов : Front: L R
Частота : 48,0 КГц
Битовая глубина : 16 бит
Метод сжатия : С потерями
Размер потока : 118 Мбайт (2%)
Язык : Russian
Аудио #2
Идентификатор : 3
Формат : AC-3
Формат/Информация : Audio Coding 3
Расширение режима : CM (complete main)
Идентификатор кодека : A_AC3
Продолжительность : 1 ч. 13 м.
Вид битрейта : Постоянный
Битрейт : 640 Кбит/сек
Канал(ы) : 6 канала(ов)
Расположение каналов : Front: L C R, Side: L R, LFE
Частота : 48,0 КГц
Битовая глубина : 16 бит
Метод сжатия : С потерями
Размер потока : 336 Мбайт (5%)
Язык : English
Скриншоты сравнения
Благодарности релизеру (0)

Торрент:

Статус:

Размер:

Зарегистрирован   [ 2011-10-06 21:21 ]

проверено

6.08 GB