Торренты   
 
 

 

Зов дикой природы / Call of the Wild (Ричард Габай / Richard Gabai) [2009 г., HDTVRip, Anamorph SideBySide]

Рейтинг 3D:
10 голосов
8.3
Рейтинг фильма:
9 голосов
8.8
 
Вы должны быть авторизированы,
чтобы ставить оценки


Зов дикой природы / Call of the Wild
-Год выпуска: 2009
Страна: США
Жанр: драма, приключения, семейный
Продолжительность: 1:24:08
Перевод: Профессиональный (многоголосый закадровый НТВ+)-Режиссер: Ричард Габай / Richard Gabai-Описание: Родители 10-летней Райан уезжают в Европу и на время своего отсутствия отправляют дочь в Монтану к дедушке. Избалованной городской девочке штат Монтана кажется страшной глушью, а местные жители — весьма странными людьми. Особенно ей непонятно их увлечение собачьими гонками. Но однажды к дому деда прибивается раненая дикая собака, полупес-полуволк, и девочка начинает ухаживать за животным…-Формат 3d: Anamorph SideBySide
Порядок ракурсов: Параллельная пара-Качество: HDTVRip
Контейнер: MKV
Видео: AVC / 1920х1080p / 25 fps / 11.5 Mbps
Аудио#1: Русский / AC3 / 48 KHz / 2 ch / 192Kbps
Аудио#2: Английский / AC3 / 48 KHz / 2 ch / 192Kbps

MediaInfo

Код:
General
Unique ID                        : 206718181125038562277229101917032148768 (0x9B847937CE991F1C8B67B0501683EF20)
Complete name                    : L:\Call Of The Wild.3D.HalfSBS.mkv
Format                           : Matroska
File size                        : 7.15 GiB
Duration                         : 1h 24mn
Overall bit rate                 : 12.2 Mbps
Movie name                       : Call of the Wild 3D
Encoded date                     : UTC 2011-10-08 15:01:11
Writing application              : mkvmerge v4.0.0 ('The Stars were mine') сборка от Jun  6 2010 16:18:42
Writing library                  : libebml v1.0.0 + libmatroska v1.0.0
Video
ID                               : 1
Format                           : AVC
Format/Info                      : Advanced Video Codec
Format profile                   : Main@L4.0
Format settings, CABAC           : Yes
Format settings, ReFrames        : 2 frames
Codec ID                         : V_MPEG4/ISO/AVC
Duration                         : 1h 24mn
Bit rate                         : 11.5 Mbps
Width                            : 1 920 pixels
Height                           : 1 080 pixels
Display aspect ratio             : 16:9
Frame rate                       : 25.000 fps
Color space                      : YUV
Chroma subsampling               : 4:2:0
Bit depth                        : 8 bits
Scan type                        : Progressive
Bits/(Pixel*Frame)               : 0.222
Stream size                      : 6.78 GiB (95%)
Writing library                  : x264 core
Language                         : Italian
Color primaries                  : BT.709-5, BT.1361, IEC 61966-2-4, SMPTE RP177
Transfer characteristics         : BT.709-5, BT.1361
Matrix coefficients              : BT.709-5, BT.1361, IEC 61966-2-4 709, SMPTE RP177
Audio #1
ID                               : 2
Format                           : AC-3
Format/Info                      : Audio Coding 3
Mode extension                   : CM (complete main)
Codec ID                         : A_AC3
Duration                         : 1h 24mn
Bit rate mode                    : Constant
Bit rate                         : 192 Kbps
Channel(s)                       : 2 channels
Channel positions                : Front: L R
Sampling rate                    : 48.0 KHz
Bit depth                        : 16 bits
Compression mode                 : Lossy
Stream size                      : 116 MiB (2%)
Language                         : Russian
Audio #2
ID                               : 3
Format                           : AC-3
Format/Info                      : Audio Coding 3
Mode extension                   : CM (complete main)
Codec ID                         : A_AC3
Duration                         : 1h 24mn
Bit rate mode                    : Constant
Bit rate                         : 192 Kbps
Channel(s)                       : 2 channels
Channel positions                : Front: L R
Sampling rate                    : 48.0 KHz
Bit depth                        : 16 bits
Compression mode                 : Lossy
Stream size                      : 116 MiB (2%)
Language                         : English

Скриншоты:






Благодарности релизеру (12)

Торрент:

Статус:

Размер:

Зарегистрирован   [ 2011-10-08 20:23 ]

проверено

7.15 GB

 
 Мнение о фильме (8)





Хороший семейный фильм. Но все же больше для детей. Качество смотрибельное, но лично у меня суслеги иногда очень явно заметны. Может кто-то на это внимание не обращает, но у меня от них глаза устают и общее впечатление неважное.
 

спасибо, очень хороший семейный фильм
 

Отличный фильм! Побольше бы таких добрых, семейных :) Очень жаль, Что звук только стерео..
 

Фильм неплохой. Семейный. Детям и любителям животных понравится)
А вот само качество фильма как будто из 90-ых. 3D тоже оставляет желать лучшего, согласен с Andrew B.
 

Спасибо за фильм, очень понравился сюжет и качество 3Д на высоте, не понятно, почему другие не довольны... Вобщем жду в дальнейшем подобных релизов о разумном, добром и вечном... Честно, "трансформеры" запарили, мне интерсны больше человеческие взаимоотношения...Оценка только пять
 

С Новым Годом!Большое спасибо за Вашу работу,ребята.
Замечательный фильм.С удовольствием посмотрела сама и делюсь со своими друзьями.
 

Andrew B, а кто такие "суслеги"? это термин какой то?
 

Хороший фильм.В коллеекцию.Спасибо)))