Торренты   
 
 


Сафари / 3D Safari: Africa [2011, BDrip, half1080p, Anamorph OverUnder]

Рейтинг 3D:
Пока никто не голосовал
Рейтинг фильма:
Пока никто не голосовал
 
Вы должны быть авторизированы,
чтобы ставить оценки


Сафари3D Safari: Africa
Год выпуска: 2011
Страна: США (Digital Revolution Studios, Wild Eyes Productions, 3D Safari)
Жанр: Документальный
Продолжительность: 01:26:58
Перевод: Одноголосый закадровый
Режиссер: Дэвид Кин / David Keane
Ведущий: Хантер Эллис / Hunter Ellis
Описание: Сафари (путешествие) по саваннам и горам Кении, Уганды и Танзании (вокруг озера Виктория, в т.ч. в районе самой высокой горы Африки - Килиманджаро). Вы встретитесь с Большой Африканской Пятеркой: львом, леопардом, слоном, носорогом и буйволом. Вы ощутите чудесную красоту этой земли, оцените удивительную красоту и грацию экзотических животных в местах их естественного обитания, и полетаете на воздушном шаре над этими местами.
За русскую дорогу спасибо --Премьера: 27 февраля 2011
Бюджет: $800 000

Проверено на встроенном плейере ТВ Samsung UE-C7000--Формат 3D: Anamorph OverUnder
Качество: BDrip
Контейнер: MKV-Видео: AVC / 23,976 fps / 1920х1080p / 19.5 Mbps
Аудио:
#1 - Русский / AC3 / 48 KHz / 5.1 ch / 640 Kbps (AVO)
#2 - Английский / AC3 / 48 KHz / 5.1 ch / 640 Kbps
Субтитры: Отсутствуют

MediaInfo

General
UniqueID : 232884220940720488553364766520588000607 (0xAF33DE957CDFCF0493D80ACC6D9E5D5F)
Complete name : F:\Downloads\SafariAfrica(3D)2011.halfOU(Ash61).mkv
Format : Matroska
File size : 12.9 GiB
Duration : 1h 26mn
Overall bit rate : 21.2 Mbps
Movie name : 3D Safari: Africa (2011) (by Ash61)
Encoded date : UTC 2012-07-18 11:31:03
Writing application : mkvmerge v3.4.0 ('Rapunzel') сборка от May 15 2010 09:38:20
Writing library : libebml v0.8.0 + libmatroska v0.9.0
Video
ID : 1
Format : AVC
Format/Info : Advanced Video Codec
Format profile : High@L4.1
Format settings, CABAC : Yes
Format settings, ReFrames : 4 frames
Codec ID : V_MPEG4/ISO/AVC
Duration : 1h 26mn
Bit rate : 19.5 Mbps
Width : 1 920 pixels
Height : 1 080 pixels
Display aspect ratio : 16:9
Frame rate : 23.976 fps
Color space : YUV
Chroma subsampling : 4:2:0
Bit depth : 8 bits
Scan type : Progressive
Bits/(Pixel*Frame) : 0.393
Stream size : 11.9 GiB (92%)
Title : BDrip by Ash61
Writing library : x264 core 113 r1884 7313bb5
Encoding settings : cabac=1 / ref=4 / deblock=1:-3:-3 / analyse=0x3:0x113 / me=umh / subme=9 / psy=1 / psy_rd=1.00:0.15 / mixed_ref=1 / me_range=16 / chroma_me=1 / trellis=2 / 8x8dct=1 / cqm=0 / deadzone=21,11 / fast_pskip=1 / chroma_qp_offset=-3 / threads=3 / sliced_threads=0 / nr=0 / decimate=1 / interlaced=0 / constrained_intra=0 / bframes=6 / b_pyramid=2 / b_adapt=2 / b_bias=0 / direct=3 / weightb=1 / open_gop=0 / weightp=2 / keyint=250 / keyint_min=23 / scenecut=40 / intra_refresh=0 / rc_lookahead=60 / rc=crf / mbtree=1 / crf=18.0 / qcomp=0.60 / qpmin=10 / qpmax=51 / qpstep=4 / ip_ratio=1.40 / aq=1:1.00
Audio #1
ID : 2
Format : AC-3
Format/Info : Audio Coding 3
Mode extension : CM (complete main)
Codec ID : A_AC3
Duration : 1h 26mn
Bit rate mode : Constant
Bit rate : 640 Kbps
Channel(s) : 6 channels
Channel positions : Front: L C R, Side: L R, LFE
Sampling rate : 48.0 KHz
Bit depth : 16 bits
Compression mode : Lossy
Stream size : 398 MiB (3%)
Title : AVO
Language : Russian
Audio #2
ID : 3
Format : AC-3
Format/Info : Audio Coding 3
Mode extension : CM (complete main)
Codec ID : A_AC3
Duration : 1h 26mn
Bit rate mode : Constant
Bit rate : 640 Kbps
Channel(s) : 6 channels
Channel positions : Front: L C R, Side: L R, LFE
Sampling rate : 48.0 KHz
Bit depth : 16 bits
Compression mode : Lossy
Stream size : 398 MiB (3%)
Language : English
Menu
00:00:00.000 : :01
00:07:30.450 : :02
00:14:49.889 : :03
00:21:18.402 : :04
00:27:34.903 : :05
00:32:18.770 : :06
00:36:19.219 : :07
00:40:00.023 : :08
00:46:10.309 : :09
00:52:27.978 : :10
00:57:23.732 : :11
01:03:14.874 : :12
01:10:23.344 : :13
01:15:51.130 : :14
01:19:36.313 : :15
01:26:21.385 : :16

Скриншоты

18.07.2012 - Релиз обновлён - добавлена русская дорога.
Желающие, скачайте заново торрент-файл.
Благодарности релизеру (2)

Торрент:

Статус:

Размер:

Зарегистрирован   [ 2012-07-18 17:45 ]

проверено

12.89 GB