Торренты   
 
 


В поисках Жу 3D/ Quest for Zhu 3D [2011 г., 1080p, BDrip, FAB, Anamorph OverUnder]

Рейтинг 3D:
Пока никто не голосовал
Рейтинг фильма:
Пока никто не голосовал
 
Вы должны быть авторизированы,
чтобы ставить оценки


В поисках Жу / Quest for Zhu
Год выпуска: 2011
Страна: 20th Century Fox (США)
Жанр: мультфильм, детский
Продолжительность: 01:12:57
Перевод: Профессиональный (полное дублирование)
Режиссер: Боб Дусетте
В ролях: Хомячки и прочие зверушки
Описание: Трогательный рассказ о четырех молодых хомячках, которые отправляются на поиски, чтобы найти Дворец Жу, где они полагают - все их мечты сбудутся. Присоединяйтесь к смелым и обаятельным крохам в их приключении!..
Доп. информация: Сделано с помощью DVDFab 8 Qt, звук в формате DTS !!!
Формат 3d: Anamorph OverUnder
Качество: BDrip
Контейнер: MKV
Видео: AVC, 1920 x 1080, 23.976 fps, 12.3 Mbps
Аудио: Русский, DTS, 48.0 KHz, 755 Kbps

Скриншоты





MediaInfo

General
Unique ID : 175128488607811119005799587536800947445 (0x83C08520D9AF2158990419CEBE2D9CF5)
Complete name : E:\3 D\mkv\QUEST_FOR_ZHU\В поисках Жу.3D.2011.BDRip.Fab.DTS.avs1961.mkv
Format : Matroska
File size : 6.77 GiB
Duration : 1h 12mn
Overall bit rate : 13.3 Mbps
Movie name : В поисках Жу.3D.BDRip.DTS.avs1961
Encoded date : UTC 2011-10-07 18:11:32
Writing application : DVDFab
Writing library : libebml v0.7.8 + libmatroska v0.8.1
Video
ID : 1
Format : AVC
Format/Info : Advanced Video Codec
Format profile : High@L5.1
Format settings, CABAC : Yes
Format settings, ReFrames : 2 frames
Codec ID : V_MPEG4/ISO/AVC
Duration : 1h 12mn
Bit rate mode : Variable
Bit rate : 12.3 Mbps
Maximum bit rate : 18.7 Mbps
Width : 1 920 pixels
Height : 1 080 pixels
Display aspect ratio : 16:9
Frame rate : 23.976 fps
Color space : YUV
Chroma subsampling : 4:2:0
Bit depth : 8 bits
Scan type : Progressive
Bits/(Pixel*Frame) : 0.247
Stream size : 6.25 GiB (92%)
Audio
ID : 2
Format : DTS
Format/Info : Digital Theater Systems
Codec ID : A_DTS
Duration : 1h 12mn
Bit rate mode : Constant
Bit rate : 755 Kbps
Channel(s) : 6 channels
Channel positions : Front: L C R, Side: L R, LFE
Sampling rate : 48.0 KHz
Bit depth : 16 bits
Compression mode : Lossy
Stream size : 394 MiB (6%)
Language : Russian
Menu
00:00:00.000 : en:(01)00:00:00:000
00:05:08.182 : en:(02)00:05:08:182
00:10:06.105 : en:(03)00:10:06:105
00:15:08.866 : en:(04)00:15:08:866
00:19:25.080 : en:(05)00:19:25:080
00:27:14.424 : en:(06)00:27:14:424
00:35:49.772 : en:(07)00:35:49:772
00:41:24.273 : en:(08)00:41:24:273
00:51:00.807 : en:(09)00:51:00:807
01:01:51.958 : en:(10)01:01:51:958
01:06:41.122 : en:(11)01:06:41:122
01:08:33.734 : en:(12)01:08:33:734
Благодарности релизеру (0)

Торрент:

Статус:

Размер:

Зарегистрирован   [ 2011-10-09 01:28 ]

проверено

6.77 GB