Торренты   
 
 

 

Космический спецназ Гарфилда / Garfield's Pet Force [2009г, 1080p, BDrip, Anamorph OverUnder]

Рейтинг 3D:
2 голосов
7.1
Рейтинг фильма:
2 голосов
6.2
 
Вы должны быть авторизированы,
чтобы ставить оценки


Космический спецназ Гарфилда
Garfield's Pet Force

Год выпуска: 2009
Страна: США, Корея Южная
Жанр: Мультфильм, Комедия, Семейный
Продолжительность: 01:13:21
Перевод: Профессиональный (двухголосый закадровый)
Режиссер: Марк А.З. Диппе / Mark A.Z. Dippé
В ролях: Грегг Бергер, Кэти Кавадини, Дженнифер Дарлинг, Грег Иглз, Грег Финли, Джефф Фишер, Ванесса Маршалл, Дэвид Мичи, Пейдж Поллак, Нил Росс.
Описание: Всем известный кот-толстяк Гарфилд, большой любитель лазаньи, утраивает пикник со своими друзьями, но этот чудный день был испорчен непрошеными гостями. Оди и Нермал становятся супергероями, чтобы прогнать их, но Гарфилд не следует их примеру, ему просто лень. Но когда друзья оказываются в беде, кот понимает, что пришло время надеть маску героя.Проверено на встроенном плейере ТВ Samsung UE-C7000 Формат 3d: Anamorph OverUnder
Качество: BDrip
Контейнер: MKV
Видео: AVC / 1920х1080p / 23,976 fps / 6 311 Kbps
Аудио#1: Русский / AC3 / 48 KHz / 2 ch / 224 Kbps
Аудио#2: Английский / AC3 / 48 KHz / 5.1 ch / 640 Kbps

MediaInfo

General
UniqueID : 190242898766061092104357819724587078677 (0x8F1F731551C60C05ADF51F22D8C41415)
Complete name : F:\Downloads\Garfield'sPetForce3D.halfOU.AC3.ash61.mkv
Format : Matroska
File size : 3.75 GiB
Duration : 1h 13mn
Overall bit rate : 7 321 Kbps
Movie name : Garfield's Pet Force (ash61)
Encoded date : UTC 2011-10-09 16:05:23
Writing application : mkvmerge v3.4.0 ('Rapunzel') сборка от May 15 2010 09:38:20
Writing library : libebml v0.8.0 + libmatroska v0.9.0
Video
ID : 1
Format : AVC
Format/Info : Advanced Video Codec
Format profile : High@L4.1
Format settings, CABAC : Yes
Format settings, ReFrames : 4 frames
Codec ID : V_MPEG4/ISO/AVC
Duration : 1h 13mn
Bit rate : 6 311 Kbps
Width : 1 920 pixels
Height : 1 080 pixels
Display aspect ratio : 16:9
Frame rate : 23.976 fps
Color space : YUV
Chroma subsampling : 4:2:0
Bit depth : 8 bits
Scan type : Progressive
Bits/(Pixel*Frame) : 0.127
Stream size : 3.23 GiB (86%)
Title : Rip by Ash61
Writing library : x264 core 113 r1884 7313bb5
Encoding settings : cabac=1 / ref=4 / deblock=1:-3:-3 / analyse=0x3:0x113 / me=umh / subme=9 / psy=1 / psy_rd=1.00:0.15 / mixed_ref=1 / me_range=16 / chroma_me=1 / trellis=2 / 8x8dct=1 / cqm=0 / deadzone=21,11 / fast_pskip=1 / chroma_qp_offset=-3 / threads=3 / sliced_threads=0 / nr=0 / decimate=1 / interlaced=0 / constrained_intra=0 / bframes=6 / b_pyramid=2 / b_adapt=2 / b_bias=0 / direct=3 / weightb=1 / open_gop=0 / weightp=2 / keyint=250 / keyint_min=23 / scenecut=40 / intra_refresh=0 / rc_lookahead=60 / rc=crf / mbtree=1 / crf=18.0 / qcomp=0.60 / qpmin=10 / qpmax=51 / qpstep=4 / ip_ratio=1.40 / aq=1:1.00
Audio #1
ID : 2
Format : AC-3
Format/Info : Audio Coding 3
Mode extension : CM (complete main)
Codec ID : A_AC3
Duration : 1h 13mn
Bit rate mode : Constant
Bit rate : 224 Kbps
Channel(s) : 2 channels
Channel positions : Front: L R
Sampling rate : 48.0 KHz
Bit depth : 16 bits
Compression mode : Lossy
Stream size : 118 MiB (3%)
Language : Russian
Audio #2
ID : 3
Format : AC-3
Format/Info : Audio Coding 3
Mode extension : CM (complete main)
Codec ID : A_AC3
Duration : 1h 13mn
Bit rate mode : Constant
Bit rate : 640 Kbps
Channel(s) : 6 channels
Channel positions : Front: L C R, Side: L R, LFE
Sampling rate : 48.0 KHz
Bit depth : 16 bits
Compression mode : Lossy
Stream size : 336 MiB (9%)
Language : English
Menu
00:00:00.000 : :01
00:05:26.159 : :02
00:09:17.515 : :03
00:15:40.690 : :04
00:20:26.225 : :05
00:24:52.783 : :06
00:29:24.221 : :07
00:37:27.078 : :08
00:42:46.481 : :09
00:46:32.456 : :10
00:51:58.824 : :11
00:54:26.722 : :12
00:59:33.069 : :13
01:03:05.198 : :14
01:08:35.069 : :15

Скриншоты

Господа копипастеры, уважайте труд рипперов - пожалуйста, указывайте авторство в своих релизах!
Благодарности релизеру (21)

Торрент:

Статус:

Размер:

Зарегистрирован   [ 2011-10-09 21:28 ]

проверено

3.75 GB