Торренты   
 
 


АВАТАР в 3Д (ЭКРАНКА!!!) / AVATAR in 3D (Джеймс Кэмерон) [2009 г., Боевик, приключения, фантастика, OverUnder]

АВАТАР в 3Д / AVATAR in 3D
Появился 3Д БлюРей, раздача не актуальна.
Год выпуска: 2009
Страна: США, Великобритания
Жанр: Боевик, приключения, фантастика
Продолжительность: 02:37:07
Перевод: Профессиональный (полное дублирование)
Режиссер: Джеймс Кэмерон
В ролях: Сэм Уортингтон, Зои Салдана, Сигурни Уивер, Стивен Лэнг, Джоэль Мур, Джованни Рибизи, Мишель Родригес, Лас Алонсо, Уэс Студи, Си Си Эйч Паундер
Описание: Джейк Салли — бывший морской пехотинец, прикованный к инвалидному креслу. Несмотря на немощное тело, Джейк в душе по-прежнему остается воином. Он получает задание совершить путешествие в несколько световых лет к базе землян на планете Пандора, где корпорации добывают редкий минерал, имеющий огромное значение для выхода Земли из энергетического кризиса.
Доп. информация: Первая 3Д экранка! Фильм в формате вертикальной стереопары, снятый по-видимому, либо через стерео-насадку на одну камеру и сквозь очки, либо двумя камерами с фильтрами. Скорее всего первый вариант.
Качество неважнецкое, но зато первая смотрибельная версия фильма с честным 3Д. Дисковый вариант в лучшем качестве появится не ранее весны 2011-го года.
Смотреть через стереоплеер с любыми типами очков. Также возможно смотреть любым обычным плеером через специальные призматические стереоочки.
Формат 3d: OverUnder
Качество: CAM-rip
Формат: MKV
Видео: MPEG4 Video (H264), 1280x1056, 29.97fps, 14.3 Mbps
Аудио: Русский, AC3 5.1, 48 KHz, 448 kbps

MediaInfo

Format : Matroska
File size : 17.0 GiB
Duration : 2h 41mn
Overall bit rate : 15.1 Mbps
Encoded date : UTC 2010-05-14 17:59:56
Writing application : mkvmerge v3.3.0 ('Language') built on Mar 24 2010 14:59:24
Writing library : libebml v0.8.0 + libmatroska v0.9.0
Video
ID : 1
Format : AVC
Format/Info : Advanced Video Codec
Format profile : Main@L4.0
Format settings, CABAC : No
Format settings, ReFrames : 2 frames
Muxing mode : Container profile=Unknown@4.0
Codec ID : V_MPEG4/ISO/AVC
Duration : 2h 41mn
Bit rate : 14.3 Mbps
Width : 1 280 pixels
Height : 1 056 pixels
Display aspect ratio : 1.212
Frame rate : 29.970 fps
Resolution : 8 bits
Colorimetry : 4:2:0
Scan type : Progressive
Bits/(Pixel*Frame) : 0.354
Stream size : 16.2 GiB (95%)
Language : English
Color primaries : BT.709-5, BT.1361, IEC 61966-2-4, SMPTE RP177
Transfer characteristics : BT.709-5, BT.1361
Matrix coefficients : BT.709-5, BT.1361, IEC 61966-2-4 709, SMPTE RP177
Audio
ID : 2
Format : AC-3
Format/Info : Audio Coding 3
Format_Settings_ModeExtension : CM (complete main)
Codec ID : A_AC3
Duration : 2h 41mn
Bit rate mode : Constant
Bit rate : 448 Kbps
Channel(s) : 6 channels
Channel positions : Front: L C R, Side: L R, LFE
Sampling rate : 48.0 KHz
Video delay : -200ms
Stream size : 518 MiB (3%)
Language : Russian

Скриншоты




AVATAR_3D_mkv.torrent
Торрент: Не зарегистрирован

Скачать

85 KB

Добавлен: 2010-05-15 21:04
Скачано: 7977 раз  [ Список скачавших ]
   
Комментарии:

Пред.  1, 2, 3, 4, 5, 6  След.






Один ракурс начинал отставать (опережать) от другого.
это невозможно даже теоретически, т.к. оба ракурса связаны физически и являются частью одного целого кадра.
 

И все-таки: с очками нвидиа 3д вижн удалось кому-нибудь посмотреть фильм?
После того как скачал и установил K-Lite_Codec_Pack_590_Full всё заработало. Со Стереоскопиком не заморачиваюсь, смотрю через родной NVIDIA 3D Vision Video Player.
 

Со Стереоскопиком не заморачиваюсь, смотрю через родной NVIDIA 3D Vision Video Player.
ну по сути это тот же самый стереоскопик, просто урезанный до предела, т.е. не поддерживает ничего кроме 3д вижена.
 

Можно сделать размер по меньше? и горизонтальную стереопару? Плиз, просто на компе смотреть через стерео плеер неохото. И скорость у меня маленькая 128кб в секунду
 

ну по сути это тот же самый стереоскопик, просто урезанный до предела, т.е. не поддерживает ничего кроме 3д вижена.
а ничего другого, кроме 3д вижена, мне и не надо, плюс нет замарочек со всякими крэками и перестановками разных версий.
 

Всем привет.Посмотрел AVATAR 3D стереокопиком v 1.5.6 и родным плеером инвидиа с очками 3D VISION .Всё в полном ажуре.
 

Эта же группа китайцев сейчас алису выложила ) Но качать дают только избранным (
 

ДАЙ АДРЕСС ?
 

молодцы китайцы!
Так и надо этим жадным кинопродавцам, а то обещали 3Д-Аватара вместе с первыми 3д-теликами в продажу пустить, а сами по второму разу в кинотеатрах запустили, а впродажу только 2д версию выдали ;(
Вот путь теперь повоют, что пираты не дали сливок снять с 3д-блюрей релизов будущих, так как эту версию на паблик выложили...ДОЛОЙ КОПИРАСТОВ!!!
 

Из тех кто уже скачал, ужмите плз этот HD хотя бы до DVD 5...
слишком огромный размер....
 

Ха-ха!!!
Что-то там Джеймс Камерон говорил о том, что 3D-фильмы нельзя украсть из кинотеатров. :-)))
Взял Fuji 3D, надел ей на морду очки, и вперёд.
 

Народ,подскажите, чем посмотреть скриншоты ? Родной нвидиа просмотровщик ничего не понимает. И ещё вопрос - как с комп ресурсами ? Не тормозит ? А то БД ремукс 20Гб , жуть, как тормозил.
 

А нельзя ужать это в 3-4 Гб по типу как монстров против пришельцев ужали?
 

смотрел скриншоты и семпл,все просто замечательно))
низкий поклон раздаюшему.
 

Эта же группа китайцев сейчас алису выложила ) Но качать дают только избранным (
Приватная 3D экранка - новый виток старой спирали. ))
 

Эта же группа китайцев сейчас алису выложила ) Но качать дают только избранным (
Приватная 3D экранка - новый виток старой спирали. ))
Ага, история повторяется ) Докачалась у меня алиса, качество конечно средненькое, но смотреть можно. Если будут желающие - могу выложить
 

alexpk Давай выкладывай
 

[Эта же группа китайцев сейчас алису выложила ) Но качать дают только избранным] дай адресс этих китайцев? alexpk
 

 

Интересно а АВАТАР в анаглифе выходил ?
 

Страница 4 из 6

Пред.  1, 2, 3, 4, 5, 6  След.